***Уважаемые пользователи и гости !!! Сайт переехал на новый домен Torrents-club.info. Просьба изменить ваши закладки! ***
 
[ Сегодня идет свободное скачивание без начисления Download ]


Статистика раздачи
Скачал: [ 6 ]
 
   
 
 
 
 
Охотник на монстров / Monster Hunter- Информация о фильме
Название: Охотник на монстров
Оригинальное название: Monster Hunter
Год выхода: 2020
Жанр: фэнтези, боевик, приключения
Режиссер: Пол У. С. Андерсон
В ролях: Милла Йовович, Тони Джа, Джош Хелман, Ти-Ай, Джин О-Юн, Миган Гуд, Николас Расенти, Рон Перлман, Диего Бонета, Хирона Ямадзаки
О фильме:
Параллельно нашему миру существует иной — мир, где правят крайне опасные и наделенные невероятной силой монстры. Именно сюда через пространственный портал попадают лейтенант Артемис и ее отряд элитных бойцов. И теперь им предстоит проверить себя на прочность перед лицом невиданной ранее угрозы. Пытаясь выжить и найти дорогу домой, Артемис объединяет силы с местным Охотником, который научился выживать в этих враждебных землях. Вместе героям предстоит вступить в схватку с ужасающими монстрами, не знающими страха и жалости...

Страна: США, Китай, Германия, Япония
Продолжительность: 01:43:07
Перевод(ы):
#1: Профессиональный дублированный | Line
#2: Профессиональный (многоголосый) | HDRezka studio
#3: Авторский (одноголосый, закадровый) | Дольский
#4: Авторский (одноголосый, закадровый) | BadBajo
Файл
Кодек: H.265
Качество: WEB-DL 2160p
Видео: MPEG-H HEVC HDR Video, 3840x1600 (2.40:1), 23.976 fps, 14.6 Mb/s, 10 bit
Аудио 1: AC3, 48.0 kHz, 2 ch, 256 kb/s | RUS [DUB, Line]
Аудио 2: AC3, 48.0 kHz, 6 ch, 448 kb/s | RUS [MVO, HDRezka studio]
Аудио 3: AC3, 48.0 kHz, 6 ch, 640 kb/s | RUS [AVO, Дольский]
Аудио 4: AC3, 48.0 kHz, 6 ch, 640 kb/s | RUS [AVO, BadBajo]
Аудио 5: AC3, 48.0 kHz, 6 ch, 384 kb/s | UKR [MVO, HDRezka studio]
Аудио 6: E-AC3, 48.0 kHz, 6 ch, 640 kb/s | ENG [Оригинал]
Субтитры: Русские (2 x Forced, full), украинские (Forced), английские (Forced, full, SDH)

MI

General
Unique ID : 222430920312453854687200075386427512666 (0xA756A312596543F2AF3994EE846B975A)
Complete name : Monster.Hunter.(2020).HDR.WEB-DL.2160p.mkv
Format : Matroska
Format version : Version 4
File size : 12.7 GiB
Duration : 1 h 43 min
Overall bit rate : 17.6 Mb/s
Encoded date : UTC 2021-02-20 11:31:34
Writing application : mkvmerge v8.3.0 ('Over the Horizon') 64bit
Writing library : libebml v1.3.1 + libmatroska v1.4.2
Video
ID : 1
Format : HEVC
Format/Info : High Efficiency Video Coding
Commercial name : HDR10
Format profile : Main 10@L5@Main
Codec ID : V_MPEGH/ISO/HEVC
Duration : 1 h 43 min
Bit rate : 14.6 Mb/s
Width : 3 840 pixels
Height : 1 600 pixels
Display aspect ratio : 2.40:1
Frame rate mode : Constant
Frame rate : 23.976 (24000/1001) FPS
Color space : YUV
Chroma subsampling : 4:2:0
Bit depth : 10 bits
Bits/(Pixel*Frame) : 0.099
Stream size : 10.5 GiB (83%)
Default : Yes
Forced : No
Color range : Limited
Color primaries : BT.2020
Transfer characteristics : PQ
Matrix coefficients : BT.2020 non-constant
Mastering display color primaries : Display P3
Mastering display luminance : min: 0.0050 cd/m2, max: 4000 cd/m2
Maximum Content Light Level : 1636 cd/m2
Maximum Frame-Average Light Level : 278 cd/m2
Audio #1
ID : 2
Format : AC-3
Format/Info : Audio Coding 3
Commercial name : Dolby Digital
Codec ID : A_AC3
Duration : 1 h 43 min
Bit rate mode : Constant
Bit rate : 256 kb/s
Channel(s) : 2 channels
Channel layout : L R
Sampling rate : 48.0 kHz
Frame rate : 31.250 FPS (1536 SPF)
Bit depth : 16 bits
Compression mode : Lossy
Stream size : 189 MiB (1%)
Title : DUB (Line)
Language : Russian
Service kind : Complete Main
Default : Yes
Forced : No
Audio #2
ID : 3
Format : AC-3
Format/Info : Audio Coding 3
Commercial name : Dolby Digital
Codec ID : A_AC3
Duration : 1 h 43 min
Bit rate mode : Constant
Bit rate : 448 kb/s
Channel(s) : 6 channels
Channel layout : L R C LFE Ls Rs
Sampling rate : 48.0 kHz
Frame rate : 31.250 FPS (1536 SPF)
Bit depth : 16 bits
Compression mode : Lossy
Stream size : 330 MiB (3%)
Title : MVO (HDRezka studio)
Language : Russian
Service kind : Complete Main
Default : No
Forced : No
Audio #3
ID : 4
Format : AC-3
Format/Info : Audio Coding 3
Commercial name : Dolby Digital
Codec ID : A_AC3
Duration : 1 h 43 min
Bit rate mode : Constant
Bit rate : 640 kb/s
Channel(s) : 6 channels
Channel layout : L R C LFE Ls Rs
Sampling rate : 48.0 kHz
Frame rate : 31.250 FPS (1536 SPF)
Bit depth : 16 bits
Compression mode : Lossy
Stream size : 472 MiB (4%)
Title : AVO (Дольский)
Language : Russian
Service kind : Complete Main
Default : No
Forced : No
Audio #4
ID : 5
Format : AC-3
Format/Info : Audio Coding 3
Commercial name : Dolby Digital
Codec ID : A_AC3
Duration : 1 h 43 min
Bit rate mode : Constant
Bit rate : 640 kb/s
Channel(s) : 6 channels
Channel layout : L R C LFE Ls Rs
Sampling rate : 48.0 kHz
Frame rate : 31.250 FPS (1536 SPF)
Bit depth : 16 bits
Compression mode : Lossy
Stream size : 472 MiB (4%)
Title : AVO (BadBajo)
Language : Russian
Service kind : Complete Main
Default : No
Forced : No
Audio #5
ID : 6
Format : AC-3
Format/Info : Audio Coding 3
Commercial name : Dolby Digital
Codec ID : A_AC3
Duration : 1 h 43 min
Bit rate mode : Constant
Bit rate : 384 kb/s
Channel(s) : 6 channels
Channel layout : L R C LFE Ls Rs
Sampling rate : 48.0 kHz
Frame rate : 31.250 FPS (1536 SPF)
Bit depth : 16 bits
Compression mode : Lossy
Stream size : 283 MiB (2%)
Title : MVO (HDRezka studio)
Language : Ukrainian
Service kind : Complete Main
Default : No
Forced : No
Audio #6
ID : 7
Format : E-AC-3
Format/Info : Enhanced AC-3
Commercial name : Dolby Digital Plus
Codec ID : A_EAC3
Duration : 1 h 43 min
Bit rate mode : Constant
Bit rate : 640 kb/s
Channel(s) : 6 channels
Channel layout : L R C LFE Ls Rs
Sampling rate : 48.0 kHz
Frame rate : 31.250 FPS (1536 SPF)
Compression mode : Lossy
Stream size : 472 MiB (4%)
Title : Original
Language : English
Service kind : Complete Main
Default : No
Forced : No
Text #1
ID : 8
Format : UTF-8
Codec ID : S_TEXT/UTF8
Codec ID/Info : UTF-8 Plain Text
Duration : 1 h 32 min
Bit rate : 1 b/s
Count of elements : 26
Stream size : 1.27 KiB (0%)
Title : Forced (Enigma)
Language : Russian
Default : Yes
Forced : No
Text #2
ID : 9
Format : UTF-8
Codec ID : S_TEXT/UTF8
Codec ID/Info : UTF-8 Plain Text
Duration : 1 h 30 min
Bit rate : 4 b/s
Count of elements : 59
Stream size : 3.12 KiB (0%)
Title : Forced (HDRezka studio)
Language : Russian
Default : No
Forced : No
Text #3
ID : 10
Format : UTF-8
Codec ID : S_TEXT/UTF8
Codec ID/Info : UTF-8 Plain Text
Duration : 1 h 32 min
Bit rate : 30 b/s
Count of elements : 521
Stream size : 20.9 KiB (0%)
Title : Full (Enigma)
Language : Russian
Default : No
Forced : No
Text #4
ID : 11
Format : UTF-8
Codec ID : S_TEXT/UTF8
Codec ID/Info : UTF-8 Plain Text
Duration : 1 h 31 min
Bit rate : 1 b/s
Count of elements : 25
Stream size : 1.19 KiB (0%)
Title : Forced
Language : Ukrainian
Default : No
Forced : No
Text #5
ID : 12
Format : UTF-8
Codec ID : S_TEXT/UTF8
Codec ID/Info : UTF-8 Plain Text
Duration : 43 min 44 s
Bit rate : 0 b/s
Count of elements : 7
Stream size : 172 Bytes (0%)
Title : Forced
Language : English
Default : No
Forced : No
Text #6
ID : 13
Format : UTF-8
Codec ID : S_TEXT/UTF8
Codec ID/Info : UTF-8 Plain Text
Duration : 1 h 29 min
Bit rate : 19 b/s
Count of elements : 515
Stream size : 12.6 KiB (0%)
Title : Full
Language : English
Default : No
Forced : No
Text #7
ID : 14
Format : UTF-8
Codec ID : S_TEXT/UTF8
Codec ID/Info : UTF-8 Plain Text
Duration : 1 h 42 min
Bit rate : 25 b/s
Count of elements : 986
Stream size : 19.2 KiB (0%)
Title : SDH
Language : English
Default : No
Forced : No
Menu
00:00:00.000 : :1
00:05:57.000 : :2
00:09:53.000 : :3
00:15:00.000 : :4
00:21:10.000 : :5
00:24:50.000 : :6
00:31:43.000 : :7
00:41:00.000 : :8
00:49:05.000 : :9
00:56:04.000 : :10
01:02:48.000 : :11
01:08:55.000 : :12
01:14:08.000 : :13
01:21:13.000 : :14
01:26:32.000 : :15
01:31:15.000 : :16

Скриншоты

[Цитировать]



Показать сообщения:    

Текущее время: 14-Июн 15:54

Часовой пояс: UTC + 6


Вы не можете начинать темы
Вы не можете отвечать на сообщения
Вы не можете редактировать свои сообщения
Вы не можете удалять свои сообщения
Вы не можете голосовать в опросах
Вы не можете прикреплять файлы к сообщениям
Вы не можете скачивать файлы

!ВНИМАНИЕ!
Сайт не предоставляет электронные версии произведений, а занимается лишь коллекционированием и каталогизацией ссылок, присылаемых и публикуемых на форуме нашими читателями. Если вы являетесь правообладателем какого-либо представленного материала и не желаете, чтобы ссылка на него находилась в нашем каталоге, свяжитесь с нами, и мы незамедлительно удалим ее. Файлы для обмена на трекере предоставлены пользователями сайта, и администрация не несет ответственности за их содержание. Просьба не заливать файлы, защищенные авторскими правами, а также файлы нелегального содержания!