***Уважаемые пользователи и гости !!! Сайт переехал на новый домен Torrents-club.info. Просьба изменить ваши закладки! ***
 
[ Сегодня идет свободное скачивание без начисления Download ]


Статистика раздачи
Скачал: [ 4 ]
 
   
 
 
 
 
Аферистка / I Care a LotИнформация о фильме
Название: Аферистка
Оригинальное название: I Care a Lot
Год выхода: 2020
Жанр: триллер, комедия, криминал
Режиссер: Дж. Блэйксон
В ролях: Розамунд Пайк, Питер Динклэйдж, Эйса Гонсалес, Дайэнн Уист, Крис Мессина, Исайя Уитлок мл., Мэйкон Блэр, Алисия Уитт, Дэмиэн Янг, Николас Логан
О фильме: Марла руководствуется принципом «побеждает сильнейший». Она искусно пользуется людьми, прикрываясь заботой о них, и наловчилась безнаказанно обдирать своих богатых клиентов за счет редкого обаяния и немалой доли цинизма. Но её новая подопечная не так проста, как кажется, и сладкая жизнь аферистки скоро превратится в игру на выживание.

Выпущено: Великобритания
Студия: Black Bear Pictures
Продолжительность: 01:58:35
Озвучивание: Дублированный | Netflix
Файл
Формат: MKV
Качество: WEB-DL 1080p | AMAZON
Видео: x264, 9025 Kb/s, 1920x800, 23.976 fps
Аудио 1: Russian: 48 kHz, AC3, 640 Kbit/s (6 ch)
Аудио 2: English: 48 kHz, E-AC3, 640 Kbit/s (6 ch)
Субтитры: Russian (Forced, Full), English
Дополнительно: Сохранены оригинальные чаптеры.

MediaInfo:

Complete name : Aferistka.2020.1080p.AMZN.WEB-DL.ELEKTRI4KA.UNIONGANG.mkv
Format : Matroska
Format version : Version 4 / Version 2
File size : 8.54 GiB
Duration : 1 h 58 min
Overall bit rate : 10.3 Mb/s
Movie name : Aferistka.2020.1080p.AMZN.WEB-DL.ELEKTRI4KA.UNIONGANG.
Encoded date : UTC 2021-02-19 08:47:08
Writing application : mkvmerge v8.3.0 ('Over the Horizon') 64bit
Writing library : libebml v1.3.1 + libmatroska v1.4.2
Video
ID : 1
Format : AVC
Format/Info : Advanced Video Codec
Format profile : High@L4
Format settings, CABAC : Yes
Format settings, Reference frames : 4 frames
Codec ID : V_MPEG4/ISO/AVC
Duration : 1 h 58 min
Bit rate mode : Constant
Bit rate : 9 025 kb/s
Nominal bit rate : 10 000 kb/s
Width : 1 920 pixels
Height : 800 pixels
Display aspect ratio : 2.40:1
Frame rate mode : Constant
Frame rate : 23.976 (24000/1001) FPS
Color space : YUV
Chroma subsampling : 4:2:0
Bit depth : 8 bits
Scan type : Progressive
Bits/(Pixel*Frame) : 0.245
Stream size : 7.48 GiB (88%)
Default : Yes
Forced : No
Color range : Limited
Color primaries : BT.709
Transfer characteristics : BT.709
Matrix coefficients : BT.709
Audio #1
ID : 2
Format : AC-3
Format/Info : Audio Coding 3
Mode extension : CM (complete main)
Format settings, Endianness : Big
Codec ID : A_AC3
Duration : 1 h 58 min
Bit rate mode : Constant
Bit rate : 640 kb/s
Channel(s) : 6 channels
Channel positions : Front: L C R, Side: L R, LFE
Sampling rate : 48.0 kHz
Frame rate : 31.250 FPS (1536 spf)
Bit depth : 16 bits
Compression mode : Lossy
Stream size : 543 MiB (6%)
Title : DUB (Netflix)
Language : Russian
Default : Yes
Forced : Yes
Audio #2
ID : 3
Format : E-AC-3
Format/Info : Enhanced Audio Coding 3
Format settings, Endianness : Big
Codec ID : A_EAC3
Duration : 1 h 58 min
Bit rate mode : Constant
Bit rate : 640 kb/s
Channel(s) : 6 channels
Channel positions : Front: L C R, Side: L R, LFE
Sampling rate : 48.0 kHz
Frame rate : 187.500 FPS (256 spf)
Compression mode : Lossy
Stream size : 543 MiB (6%)
Language : English
Default : No
Forced : No
Text #1
ID : 4
Format : UTF-8
Codec ID : S_TEXT/UTF8
Codec ID/Info : UTF-8 Plain Text
Duration : 1 h 50 min
Bit rate : 1 b/s
Count of elements : 24
Stream size : 973 Bytes (0%)
Title : Forced
Language : Russian
Default : Yes
Forced : No
Text #2
ID : 5
Format : UTF-8
Codec ID : S_TEXT/UTF8
Codec ID/Info : UTF-8 Plain Text
Duration : 1 h 57 min
Bit rate : 75 b/s
Count of elements : 1327
Stream size : 65.1 KiB (0%)
Title : Full
Language : Russian
Default : No
Forced : No
Text #3
ID : 6
Format : UTF-8
Codec ID : S_TEXT/UTF8
Codec ID/Info : UTF-8 Plain Text
Duration : 1 h 52 min
Bit rate : 54 b/s
Count of elements : 1339
Stream size : 44.8 KiB (0%)
Title : SDH
Language : English
Default : No
Forced : No
Menu
00:00:00.000 : en:Amazon Original
00:00:06.000 : en:Studio Logos
00:00:43.000 : en:Opening Credits
00:01:09.000 : en:Not good people
00:03:05.000 : en:A day in court
00:06:29.000 : en:Threats
00:07:41.000 : en:A day at the office
00:10:10.000 : en:A cherry
00:12:57.000 : en:Researching a new client
00:15:30.000 : en:Picking up Mrs. Peterson
00:22:53.000 : en:Going through the assets
00:26:33.000 : en:Unexpected visitor
00:27:59.000 : en:Reporting back to the boss
00:31:56.000 : en:The diamonds
00:33:17.000 : en:Roman finds his mother
00:36:01.000 : en:A meeting with Marla
00:44:47.000 : en:The worst mistake she'll ever make
00:49:01.000 : en:A trip to the bank
00:50:08.000 : en:A scandal for the judge
00:53:38.000 : en:Roman throws a fit
00:54:09.000 : en:A tour of the facility
00:54:54.000 : en:The truth about Mrs. Peterson
01:00:20.000 : en:Police interview
01:01:54.000 : en:Calling in a favor
01:03:23.000 : en:Panic at home
01:05:27.000 : en:Marla refuses to lose
01:08:14.000 : en:Moving to a psych facility
01:10:07.000 : en:Fencing the diamonds
01:12:25.000 : en:A break in
01:12:55.000 : en:You can't spend money when you're dead
01:23:04.000 : en:Trying to survive
01:32:38.000 : en:Making a plan
01:41:38.000 : en:A new opportunity
01:48:30.000 : en:A very rich woman
01:52:54.000 : en:End Credits

Скриншоты


[Цитировать]



Показать сообщения:    

Текущее время: 13-Апр 20:21

Часовой пояс: UTC + 6


Вы не можете начинать темы
Вы не можете отвечать на сообщения
Вы не можете редактировать свои сообщения
Вы не можете удалять свои сообщения
Вы не можете голосовать в опросах
Вы не можете прикреплять файлы к сообщениям
Вы не можете скачивать файлы

!ВНИМАНИЕ!
Сайт не предоставляет электронные версии произведений, а занимается лишь коллекционированием и каталогизацией ссылок, присылаемых и публикуемых на форуме нашими читателями. Если вы являетесь правообладателем какого-либо представленного материала и не желаете, чтобы ссылка на него находилась в нашем каталоге, свяжитесь с нами, и мы незамедлительно удалим ее. Файлы для обмена на трекере предоставлены пользователями сайта, и администрация не несет ответственности за их содержание. Просьба не заливать файлы, защищенные авторскими правами, а также файлы нелегального содержания!