***Уважаемые пользователи и гости !!! Сайт переехал на новый домен Torrents-club.info. Просьба изменить ваши закладки! ***
 
[ Сегодня идет свободное скачивание без начисления Download ]


Статистика раздачи
Нет
 
   
 
 
 
 
ОгоньИнформация о фильме
Название: Огонь
Год выхода: 2020
Жанр: Драма, приключения
Страна: Россия
Перевод: Не требуется
Продолжительность: 02:11:43
Режиссер: Алексей Нужный
В ролях: Константин Хабенский, Иван Янковский, Стася Милославская, Антон Богданов, Виктор Добронравов, Роман Курцын, Тихон Жизневский, Ирина Горбачева, Евгения Дмитриева, Юрий Кузнецов и др.
О фильме: Героическая история о пожарных и спасателях. То, что обычно называют подвигом, для них — привычные будни, если только можно привыкнуть к смертельной опасности и предельному риску. Когда людям, попавшим в беду, кажется, что помощи ждать неоткуда, на выручку приходят спасатели, чтобы встать на пути беспощадной стихии.

Файл
Качество: WEB-DL 1080p
Видео: MPEG-4 AVC, 1920x800, 4510 kbps, 24,000 fps
Звук: русский, AC3, 5.1 ch, 48 kHz, 384 kbps
Субтитры: нет

MI

Общее
Уникальный идентификатор : 175022911504218544181443754150905308754 (0x83AC2FC67549D9899E9C27349C04E652)
Полное имя : C:UtorrentOgonWEBDL1080p.mkv
Формат : Matroska
Версия формата : Version 4 / Version 2
Размер файла : 4,50 Гбайт
Продолжительность : 2 ч. 11 м.
Общий поток : 4896 Кбит/сек
Дата кодирования : UTC 2021-02-22 19:19:19
Программа кодирования : mkvmerge v9.5.0 ('Quiet Fire') 64bit
Библиотека кодирования : libebml v1.3.4 + libmatroska v1.4.5
Видео
Идентификатор : 1
Формат : AVC
Формат/Информация : Advanced Video Codec
Профиль формата : High@L4
Настройки формата : CABAC / 5 Ref Frames
Параметр CABAC формата : Да
Параметр RefFrames формата : 5 кадров
Идентификатор кодека : V_MPEG4/ISO/AVC
Продолжительность : 2 ч. 11 м.
Битрейт : 4510 Кбит/сек
Ширина : 1920 пикселей
Высота : 800 пикселей
Соотношение сторон : 2,40:1
Режим частоты кадров : Постоянный
Частота кадров : 24,000 кадра/сек
Цветовое пространство : YUV
Субдискретизация насыщенности : 4:2:0
Битовая глубина : 8 бит
Тип развёртки : Прогрессивная
Бит/(Пиксели*Кадры) : 0.122
Размер потока : 4,15 Гбайт (92%)
Язык : Russian
Default : Да
Forced : Нет
Цветовой диапазон : Limited
Основные цвета : BT.709
Характеристики трансфера : BT.709
Коэффициенты матрицы : BT.709
Аудио
Идентификатор : 2
Формат : AC-3
Формат/Информация : Audio Coding 3
Параметр Endianness формата : Big
Идентификатор кодека : A_AC3
Продолжительность : 2 ч. 11 м.
Вид битрейта : Постоянный
Битрейт : 384 Кбит/сек
Каналы : 6 каналов
Расположение каналов : Front: L C R, Side: L R, LFE
Частота : 48,0 КГц
Частота кадров : 31,250 кадров/сек (1536 SPF)
Битовая глубина : 16 бит
Метод сжатия : С потерями
Размер потока : 362 Мбайт (8%)
Язык : Russian
Default : Да
Forced : Нет
Меню
00:00:00.000 : en:Глава 1
00:04:37.083 : en:Глава 2
00:10:44.124 : en:Глава 3
00:18:59.124 : en:Глава 4
00:24:58.832 : en:Глава 5
00:29:49.540 : en:Глава 6
00:38:08.997 : en:Глава 7
00:48:28.205 : en:Глава 8
00:53:17.955 : en:Глава 9
01:00:08.413 : en:Глава 10
01:07:34.871 : en:Глава 11
01:14:45.078 : en:Глава 12
01:22:05.494 : en:Глава 13
01:34:41.994 : en:Глава 14
01:50:36.160 : en:Глава 15
01:55:21.992 : en:Глава 16

Скриншоты

[Цитировать]



Показать сообщения:    

Текущее время: 28-Фев 00:17

Часовой пояс: UTC + 6


Вы не можете начинать темы
Вы не можете отвечать на сообщения
Вы не можете редактировать свои сообщения
Вы не можете удалять свои сообщения
Вы не можете голосовать в опросах
Вы не можете прикреплять файлы к сообщениям
Вы не можете скачивать файлы

!ВНИМАНИЕ!
Сайт не предоставляет электронные версии произведений, а занимается лишь коллекционированием и каталогизацией ссылок, присылаемых и публикуемых на форуме нашими читателями. Если вы являетесь правообладателем какого-либо представленного материала и не желаете, чтобы ссылка на него находилась в нашем каталоге, свяжитесь с нами, и мы незамедлительно удалим ее. Файлы для обмена на трекере предоставлены пользователями сайта, и администрация не несет ответственности за их содержание. Просьба не заливать файлы, защищенные авторскими правами, а также файлы нелегального содержания!