***Уважаемые пользователи и гости !!! Сайт переехал на новый домен Torrents-club.info. Просьба изменить ваши закладки! ***
 
[ Сегодня идет свободное скачивание без начисления Download ]


Статистика раздачи
Скачал: [ 4 ]
 
   
 
 
 
 
ОгоньИнформация о фильме
Название: Огонь
Год выхода: 2020
Жанр: Драма, приключения
Режиссер: Алексей Нужный
В ролях: Константин Хабенский, Иван Янковский, Стася Милославская, Антон Богданов, Виктор Добронравов, Роман Курцын, Тихон Жизневский, Ирина Горбачева, Евгения Дмитриева, Юрий Кузнецов
О фильме:
Героическая история о пожарных и спасателях. То, что обычно называют подвигом, для них — привычные будни, если только можно привыкнуть к смертельной опасности и предельному риску. Когда людям, попавшим в беду, кажется, что помощи ждать неоткуда, на выручку приходят спасатели, чтобы встать на пути беспощадной стихии.

Страна: Россия
Студия: Студия Тритэ
Продолжительность: 02:11:43
Перевод: Не требуется | iTunes
Файл
Качество: WEB-DLRip-AVC
Формат: MKV
Кодек: MPEG-4 AVC
Видео: 1024x426 (2.40:1), 24 fps, MPEG-4 AVC, 2564 Кbps avg, 0.245 bit/pixel
Аудио: AC3, 48 kHz, 6 ch, ~384.00 kbps avg | русский | iTunes
Субтитры: Отсутствуют

Инфо-файл

x264 [info]: frame I:1416 Avg QP:14.25 size: 63402
x264 [info]: frame P:49820 Avg QP:17.49 size: 24607
x264 [info]: frame B:138438 Avg QP:19.16 size: 8789
x264 [info]: consecutive B-frames: 2.9% 4.8% 6.9% 61.6% 8.0% 10.8% 1.0% 3.6% 0.2% 0.2%
**************************************************************
Общее
Уникальный идентификатор : 97003188649236598002929626490291264104 (0x48FA227350886E2AEFC81FA904229A68)
Полное имя : Ogon.2020.WEB-DLRip.2.18Gb.x264.MegaPeer.mkv
Формат : Matroska
Версия формата : Version 4
Размер файла : 2,71 Гбайт
Продолжительность : 2 ч. 11 м.
Общий поток : 2 949 Кбит/сек
Название фильма : Огонь (2020) от MegaPeer
Дата кодирования : UTC 2021-02-23 00:57:11
Программа кодирования : mkvmerge v47.0.0 ('Black Flag') 64-bit
Библиотека кодирования : libebml v1.3.10 + libmatroska v1.5.2
Обложка : Yes
Attachments : cover.jpg
Видео
Идентификатор : 1
Формат : AVC
Формат/Информация : Advanced Video Codec
Профиль формата : High@L4.1
Настройки формата : CABAC / 11 Ref Frames
Параметр CABAC формата : Да
Параметр RefFrames формата : 11 кадров
Идентификатор кодека : V_MPEG4/ISO/AVC
Продолжительность : 2 ч. 11 м.
Битрейт : 2 564 Кбит/сек
Ширина : 1 024 пикселя
Высота : 426 пикселей
Соотношение сторон : 2,40:1
Режим частоты кадров : Постоянный
Частота кадров : 24,000 кадра/сек
Цветовое пространство : YUV
Субдискретизация насыщенности : 4:2:0
Битовая глубина : 8 бит
Тип развёртки : Прогрессивная
Бит/(Пиксели*Кадры) : 0.245
Размер потока : 2,36 Гбайт (87%)
Заголовок : stillet@MegaPeer
Библиотека кодирования : x264 core 161 r3018 db0d417
Настройки программы : cabac=1 / ref=11 / deblock=1:-2:-2 / analyse=0x3:0x113 / me=umh / subme=11 / psy=1 / psy_rd=1.00:0.00 / mixed_ref=1 / me_range=48 / chroma_me=1 / trellis=2 / 8x8dct=1 / cqm=0 / deadzone=21,11 / fast_pskip=0 / chroma_qp_offset=-2 / threads=13 / lookahead_threads=2 / sliced_threads=0 / nr=0 / decimate=0 / interlaced=0 / bluray_compat=0 / constrained_intra=0 / bframes=9 / b_pyramid=2 / b_adapt=2 / b_bias=0 / direct=3 / weightb=1 / open_gop=0 / weightp=2 / keyint=240 / keyint_min=24 / scenecut=40 / intra_refresh=0 / rc_lookahead=40 / rc=2pass / mbtree=0 / bitrate=2564 / ratetol=1.0 / qcomp=0.60 / qpmin=0 / qpmax=69 / qpstep=4 / cplxblur=20.0 / qblur=0.5 / vbv_maxrate=50000 / vbv_bufsize=62500 / nal_hrd=none / filler=0 / ip_ratio=1.40 / pb_ratio=1.30 / aq=1:1.10
Язык : Russian
Default : Да
Forced : Нет
Аудио
Идентификатор : 2
Формат : AC-3
Формат/Информация : Audio Coding 3
Коммерческое название : Dolby Digital
Идентификатор кодека : A_AC3
Продолжительность : 2 ч. 11 м.
Вид битрейта : Постоянный
Битрейт : 384 Кбит/сек
Каналы : 6 каналов
Channel layout : L R C LFE Ls Rs
Частота : 48,0 КГц
Частота кадров : 31,250 кадров/сек (1536 SPF)
Метод сжатия : С потерями
Размер потока : 362 Мбайт (13%)
Заголовок : iTunes
Язык : Russian
Service kind : Complete Main
Default : Да
Forced : Нет
Меню
00:00:00.000 : en:Глава 1
00:04:37.083 : en:Глава 2
00:10:44.124 : en:Глава 3
00:18:59.124 : en:Глава 4
00:24:58.832 : en:Глава 5
00:29:49.540 : en:Глава 6
00:38:08.997 : en:Глава 7
00:48:28.205 : en:Глава 8
00:53:17.955 : en:Глава 9
01:00:08.413 : en:Глава 10
01:07:34.871 : en:Глава 11
01:14:45.078 : en:Глава 12
01:22:05.494 : en:Глава 13
01:34:41.994 : en:Глава 14
01:50:36.160 : en:Глава 15
01:55:21.992 : en:Глава 16

Скриншоты

[Цитировать]



Показать сообщения:    

Текущее время: 28-Фев 00:58

Часовой пояс: UTC + 6


Вы не можете начинать темы
Вы не можете отвечать на сообщения
Вы не можете редактировать свои сообщения
Вы не можете удалять свои сообщения
Вы не можете голосовать в опросах
Вы не можете прикреплять файлы к сообщениям
Вы не можете скачивать файлы

!ВНИМАНИЕ!
Сайт не предоставляет электронные версии произведений, а занимается лишь коллекционированием и каталогизацией ссылок, присылаемых и публикуемых на форуме нашими читателями. Если вы являетесь правообладателем какого-либо представленного материала и не желаете, чтобы ссылка на него находилась в нашем каталоге, свяжитесь с нами, и мы незамедлительно удалим ее. Файлы для обмена на трекере предоставлены пользователями сайта, и администрация не несет ответственности за их содержание. Просьба не заливать файлы, защищенные авторскими правами, а также файлы нелегального содержания!