***Уважаемые пользователи и гости !!! Сайт переехал на новый домен Torrents-club.info. Просьба изменить ваши закладки! ***
 
[ Сегодня идет свободное скачивание без начисления Download ]


Статистика раздачи
Скачал: [ 4 ]
 
   
 
 
 
 
Поворот не туда: Наследие / Wrong Turn: The Foundation- Информация о фильме
Название: Поворот не туда: Наследие
Оригинальное название: Wrong Turn: The Foundation
Год выхода: 2021
Жанр: Ужасы, триллер
Режиссер: Майк П. Нельсон
В ролях: Мэттью Модайн, Эмма Дюмон, Шарлотта Вега, Дэйзи Хэд, Билл Сейдж, Валери Джейн Паркер, Адайн Брэдли, Дэниэл Р. Хилл, Тим ДеЗарн, Дэмиэн Маффей, Зои Амбер, Дилан Макти, Кори Скотт Аллен, Адриан Фавела, Крис Хан, Дэвид Хатчинсон, Чейни Морроу, Вардаан Арора
О фильме:
Пожилой мужчина приезжает в городок Харперс-Ферри, откуда шесть недель назад его дочь в компании друзей отправилась в поход по Аппалачской тропе и с тех пор пропала. Несмотря на предупреждения местных, ребята свернули с туристического маршрута и вскоре столкнулись с сообществом людей, которые ещё до Гражданской войны основали тут поселение. И которые очень не любят чужаков.

Страна: Германия, США, Великобритания
Студия: Constantin Film
Продолжительность: 01:50:12
Перевод: Профессиональный многоголосый | HDRezka Studio [Censored]
Aвторский одноголосый | Андрей Дольский
Файл
Кодек: x.264
Качество: BDRip 1080p
Видео: MPEG-4 AVC, 10.2 Mбит/с, 1920x808, 23.976 кадр/с
Аудио #1: Русский (АС3, 6 ch, 448 Кбит/с, 48.0 KHz) Профессиональный (многоголосый, закадровый) HDRezka Studio [Censored]
Аудио #2: Русский (АС3, 6 ch, 384 Кбит/с, 48.0 KHz) Aвторский (одноголосый, закадровый) Андрей Дольский
Аудио #3: Английский (DTS, 6 ch, 1509 Кбит/с, 48.0 KHz)
Субтитры: Русские (Forced [HDRezka]), английские (Full, SDH)
► Без Рекламы!
Трейлер

MediaInfo

Источник: Wrong.Turn.2021.1080p.BluRay.REMUX.AVC.DTS-HD.MA.5.1-FGT
General
Unique ID : 198401436291452305077898604130779994000 (0x9542BA0A14940359A3FCE544BA8B1790)
Complete name : Wrong.Turn.2021.BDRip.1080p.mkv
Format : Matroska
Format version : Version 4
File size : 9.66 GiB
Duration : 1 h 50 min
Overall bit rate : 12.5 Mb/s
Encoded date : UTC 2021-02-23 12:12:49
Writing application : mkvmerge v7.1.0 ('Good Love') 64bit built on Jul 27 2014 13:06:55
Writing library : libebml v1.3.0 + libmatroska v1.4.1
Video
ID : 1
Format : AVC
Format/Info : Advanced Video Codec
Format profile : High@L4.1
Format settings : CABAC / 5 Ref Frames
Format settings, CABAC : Yes
Format settings, Reference fra : 5 frames
Codec ID : V_MPEG4/ISO/AVC
Duration : 1 h 50 min
Bit rate : 10.2 Mb/s
Width : 1 920 pixels
Height : 808 pixels
Display aspect ratio : 2.40:1
Frame rate mode : Constant
Frame rate : 23.976 (24000/1001) FPS
Color space : YUV
Chroma subsampling : 4:2:0
Bit depth : 8 bits
Scan type : Progressive
Bits/(Pixel*Frame) : 0.274
Stream size : 7.85 GiB (81%)
Writing library : x264 core 157 r2958 57baac4
Encoding settings : cabac=1 / ref=5 / deblock=1:-3:-3 / analyse=0x3:0x113 / me=umh / subme=11 / psy=1 / psy_rd=1.00:0.00 / mixed_ref=1 / me_range=32 / chroma_me=1 / trellis=2 / 8x8dct=1 / cqm=0 / deadzone=21,11 / fast_pskip=0 / chroma_qp_offset=-2 / threads=18 / lookahead_threads=4 / sliced_threads=0 / nr=0 / decimate=1 / interlaced=0 / bluray_compat=0 / constrained_intra=0 / bframes=10 / b_pyramid=2 / b_adapt=2 / b_bias=0 / direct=3 / weightb=1 / open_gop=0 / weightp=2 / keyint=240 / keyint_min=24 / scenecut=40 / intra_refresh=0 / rc=2pass / mbtree=0 / bitrate=10200 / ratetol=1.0 / qcomp=0.70 / qpmin=3 / qpmax=69 / qpstep=4 / cplxblur=20.0 / qblur=0.5 / ip_ratio=1.40 / pb_ratio=1.30 / aq=2:1.00
Language : English
Default : Yes
Forced : No
Audio #1
ID : 2
Format : AC-3
Format/Info : Audio Coding 3
Commercial name : Dolby Digital
Codec ID : A_AC3
Duration : 1 h 50 min
Bit rate mode : Constant
Bit rate : 448 kb/s
Channel(s) : 6 channels
Channel layout : L R C LFE Ls Rs
Sampling rate : 48.0 kHz
Frame rate : 31.250 FPS (1536 SPF)
Compression mode : Lossy
Stream size : 353 MiB (4%)
Title : MVO | HDRezka Studio [Censored]
Language : Russian
Service kind : Complete Main
Default : Yes
Forced : No
Audio #2
ID : 3
Format : AC-3
Format/Info : Audio Coding 3
Commercial name : Dolby Digital
Codec ID : A_AC3
Duration : 1 h 50 min
Bit rate mode : Constant
Bit rate : 384 kb/s
Channel(s) : 6 channels
Channel layout : L R C LFE Ls Rs
Sampling rate : 48.0 kHz
Frame rate : 31.250 FPS (1536 SPF)
Compression mode : Lossy
Stream size : 303 MiB (3%)
Title : AVO | А. Дольский
Language : Russian
Service kind : Complete Main
Default : No
Forced : No
Audio #3
ID : 4
Format : DTS
Format/Info : Digital Theater Systems
Codec ID : A_DTS
Duration : 1 h 50 min
Bit rate mode : Constant
Bit rate : 1 509 kb/s
Channel(s) : 6 channels
Channel layout : C L R Ls Rs LFE
Sampling rate : 48.0 kHz
Frame rate : 93.750 FPS (512 SPF)
Bit depth : 24 bits
Compression mode : Lossy
Stream size : 1.16 GiB (12%)
Language : English
Default : No
Forced : No
Text #1
ID : 5
Format : UTF-8
Codec ID : S_TEXT/UTF8
Codec ID/Info : UTF-8 Plain Text
Duration : 1 h 47 min
Bit rate : 3 b/s
Count of elements : 52
Stream size : 2.45 KiB (0%)
Title : Forced | HDRezka
Language : Russian
Default : Yes
Forced : No
Text #2
ID : 6
Format : UTF-8
Codec ID : S_TEXT/UTF8
Codec ID/Info : UTF-8 Plain Text
Duration : 1 h 42 min
Bit rate : 45 b/s
Count of elements : 1233
Stream size : 34.1 KiB (0%)
Language : English
Default : No
Forced : No
Text #3
ID : 7
Format : UTF-8
Codec ID : S_TEXT/UTF8
Codec ID/Info : UTF-8 Plain Text
Duration : 1 h 47 min
Bit rate : 52 b/s
Count of elements : 1512
Stream size : 41.2 KiB (0%)
Title : SDH
Language : English
Default : No
Forced : No
Menu
00:00:00.000 : en:Chapter 01
00:05:22.364 : en:Chapter 02
00:14:39.170 : en:Chapter 03
00:20:43.826 : en:Chapter 04
00:25:05.129 : en:Chapter 05
00:32:36.538 : en:Chapter 06
00:39:30.952 : en:Chapter 07
00:44:12.775 : en:Chapter 08
00:48:35.329 : en:Chapter 09
00:58:29.381 : en:Chapter 10
01:06:07.172 : en:Chapter 11
01:14:34.970 : en:Chapter 12
01:22:48.130 : en:Chapter 13
01:29:33.535 : en:Chapter 14
01:38:13.346 : en:Chapter 15
01:43:54.061 : en:Chapter 16

Скриншоты

[Цитировать]



Показать сообщения:    

Текущее время: 13-Апр 19:42

Часовой пояс: UTC + 6


Вы не можете начинать темы
Вы не можете отвечать на сообщения
Вы не можете редактировать свои сообщения
Вы не можете удалять свои сообщения
Вы не можете голосовать в опросах
Вы не можете прикреплять файлы к сообщениям
Вы не можете скачивать файлы

!ВНИМАНИЕ!
Сайт не предоставляет электронные версии произведений, а занимается лишь коллекционированием и каталогизацией ссылок, присылаемых и публикуемых на форуме нашими читателями. Если вы являетесь правообладателем какого-либо представленного материала и не желаете, чтобы ссылка на него находилась в нашем каталоге, свяжитесь с нами, и мы незамедлительно удалим ее. Файлы для обмена на трекере предоставлены пользователями сайта, и администрация не несет ответственности за их содержание. Просьба не заливать файлы, защищенные авторскими правами, а также файлы нелегального содержания!