***Уважаемые пользователи и гости !!! Сайт переехал на новый домен Torrents-club.info. Просьба изменить ваши закладки! ***
 
[ Сегодня идет свободное скачивание без начисления Download ]


Статистика раздачи
Скачал: [ 8 ]
 
   
 
 
 
 
Лига справедливости Зака Снайдера / Zack Snyder's Justice League- Информация о фильме
Название: Лига справедливости Зака Снайдера
Оригинальное название: Zack Snyder's Justice League
Год выхода: 2021
Жанр: Фантастика, фэнтези, боевик, приключения
Режиссер: Зак Снайдер
В ролях: Бен Аффлек, Галь Гадот, Генри Кавилл, Дайан Лэйн, Джаред Лето, Эзра Миллер, Джейсон Момоа, Конни Нильсен, Дж.К. Симмонс, Робин Райт, Эми Адамс, Карен Брайсон, Кирси Клемонс, Джесси Айзенберг, Рэй Фишер, Эмбер Хёрд, Киран Хайндс, Джереми Айронс
О фильме:
Вдохновившись самопожертвованием Супермена, Брюс Уэйн вновь обретает веру в человечество. Он заручается поддержкой новой союзницы Дианы Принс, чтобы сразиться с ещё более могущественным противником. Бэтмен и Чудо-женщина набирают команду сверхлюдей для борьбы с пробудившейся угрозой.

Страна: США
Студия: Atlas Entertainment, DC Entertainment, DC Films
Продолжительность: 04:02:07
Перевод: Дублированный | Кинопоиск HD
Файл
Кодек: x.264
Качество: WEB-DL 720p | Justice.League.Snyders.Cut.2021.720p.HMAX.WEB-DL.DDP5.1.Atmos.x264-MRCS
Видео: MPEG-4 AVC, 3395 Kбит/с, 1280x720, 23.976 кадр/с
Аудио #1: Русский (АС3, 6 ch, 384 Кбит/с, 48.0 KHz) Профессиональный (дублированный) Кинопоиск HD
Аудио #2: Английский (E-AC-3+Atmos, 6 ch, 768 Кбит/с, 48.0 KHz)
Субтитры: Русские (форс., полные), английские (SDH)
► Без Рекламы!
Трейлер

MediaInfo

Источник: Justice.League.Snyders.Cut.2021.720p.HMAX.WEB-DL.DDP5.1.Atmos.x264-MRCS
General
Unique ID : 176961021750542129467879665045830655764 (0x852173FCE95717A6A5DC3E6E2A1C5F14)
Complete name : Justice.League.Snyders.Cut.2021.720p.HMAX.WEB-DL.mkv
Format : Matroska
Format version : Version 4
File size : 7.70 GiB
Duration : 4 h 2 min
Overall bit rate mode : Variable
Overall bit rate : 4 550 kb/s
Encoded date : UTC 2021-03-18 17:10:52
Writing application : mkvmerge v7.1.0 ('Good Love') 64bit built on Jul 27 2014 13:06:55
Writing library : libebml v1.3.0 + libmatroska v1.4.1
Video
ID : 1
Format : AVC
Format/Info : Advanced Video Codec
Format profile : Main@L3.1
Format settings : CABAC / 4 Ref Frames
Format settings, CABAC : Yes
Format settings, Reference fra : 4 frames
Codec ID : V_MPEG4/ISO/AVC
Duration : 4 h 2 min
Bit rate mode : Variable
Bit rate : 3 395 kb/s
Maximum bit rate : 5 100 kb/s
Width : 1 280 pixels
Height : 720 pixels
Display aspect ratio : 16:9
Frame rate mode : Constant
Frame rate : 23.976 (24000/1001) FPS
Color space : YUV
Chroma subsampling : 4:2:0
Bit depth : 8 bits
Scan type : Progressive
Bits/(Pixel*Frame) : 0.154
Stream size : 5.74 GiB (75%)
Language : English
Default : Yes
Forced : No
Color range : Limited
Color primaries : BT.709
Transfer characteristics : BT.709
Matrix coefficients : BT.709
Audio #1
ID : 2
Format : AC-3
Format/Info : Audio Coding 3
Commercial name : Dolby Digital
Codec ID : A_AC3
Duration : 4 h 2 min
Bit rate mode : Constant
Bit rate : 384 kb/s
Channel(s) : 6 channels
Channel layout : L R C LFE Ls Rs
Sampling rate : 48.0 kHz
Frame rate : 31.250 FPS (1536 SPF)
Compression mode : Lossy
Stream size : 665 MiB (8%)
Title : DUB
Language : Russian
Service kind : Complete Main
Default : Yes
Forced : No
Audio #2
ID : 3
Format : E-AC-3 JOC
Format/Info : Enhanced AC-3 with Joint Object Coding
Commercial name : Dolby Digital Plus with Dolby Atmos
Codec ID : A_EAC3
Duration : 4 h 2 min
Bit rate mode : Constant
Bit rate : 768 kb/s
Channel(s) : 6 channels
Channel layout : L R C LFE Ls Rs
Sampling rate : 48.0 kHz
Frame rate : 31.250 FPS (1536 SPF)
Compression mode : Lossy
Stream size : 1.30 GiB (17%)
Language : English
Service kind : Complete Main
Default : No
Forced : No
Complexity index : 16
Number of dynamic objects : 15
Bed channel count : 1 channel
Bed channel configuration : LFE
Text #1
ID : 4
Format : UTF-8
Codec ID : S_TEXT/UTF8
Codec ID/Info : UTF-8 Plain Text
Duration : 3 h 25 min
Bit rate : 0 b/s
Count of elements : 19
Stream size : 528 Bytes (0%)
Title : Forced
Language : Russian
Default : Yes
Forced : No
Text #2
ID : 5
Format : UTF-8
Codec ID : S_TEXT/UTF8
Codec ID/Info : UTF-8 Plain Text
Duration : 3 h 50 min
Bit rate : 55 b/s
Count of elements : 1767
Stream size : 93.6 KiB (0%)
Title : Full
Language : Russian
Default : No
Forced : No
Text #3
ID : 6
Format : UTF-8
Codec ID : S_TEXT/UTF8
Codec ID/Info : UTF-8 Plain Text
Duration : 4 h 0 min
Bit rate : 40 b/s
Count of elements : 2814
Stream size : 70.7 KiB (0%)
Title : SDH
Language : English
Default : No
Forced : No

Скриншоты

[Цитировать]



Показать сообщения:    

Текущее время: 05-Авг 16:15

Часовой пояс: UTC + 6


Вы не можете начинать темы
Вы не можете отвечать на сообщения
Вы не можете редактировать свои сообщения
Вы не можете удалять свои сообщения
Вы не можете голосовать в опросах
Вы не можете прикреплять файлы к сообщениям
Вы не можете скачивать файлы

!ВНИМАНИЕ!
Сайт не предоставляет электронные версии произведений, а занимается лишь коллекционированием и каталогизацией ссылок, присылаемых и публикуемых на форуме нашими читателями. Если вы являетесь правообладателем какого-либо представленного материала и не желаете, чтобы ссылка на него находилась в нашем каталоге, свяжитесь с нами, и мы незамедлительно удалим ее. Файлы для обмена на трекере предоставлены пользователями сайта, и администрация не несет ответственности за их содержание. Просьба не заливать файлы, защищенные авторскими правами, а также файлы нелегального содержания!