***Уважаемые пользователи и гости !!! Сайт переехал на новый домен Torrents-club.info. Просьба изменить ваши закладки! ***
 
[ Сегодня идет свободное скачивание без начисления Download ]


Статистика раздачи
Скачал: [ 3 ]
 
   
 
 
 
 
Беги, прячься, бей / Run Hide Fight- Информация о фильме
Название: Беги, прячься, бей
Оригинальное название: Run Hide Fight
Год выхода: 2020
Жанр: Боевик, триллер
Режиссер: Кайл Ранкин
В ролях: Изабель Мэй, Томас Джейн, Рада Митчелл, Эли Браун, Олли Шолотан, Трит Уильямс, Барбара Крэмптон, Сайрус Арнольд, Бриттон Сир, Кэтрин Дэвис
О фильме:
17-летняя Зои живёт с отцом и никак не может смириться с недавней смертью матери, её даже не особо волнует предстоящий выпускной. Очередной день в школе внезапно оборачивается захватом заложников: вооружённые школьники-террористы удерживают одноклассников Зои и заставляют их вести онлайн-трансляцию происходящего. Тут-то девушке и пригодятся навыки охоты и выживания, которым её обучил отец-охотник, — Зои решает во что бы то ни стало дать отпор школьным стрелкам и освободить заложников.

Выпущено: США / Bonfire Legend, Media Finance Capital
Продолжительность: 01:49:14
Озвучивание: Дублированное | iTunes
Файл
Формат: MKV
Качество: WEB-DL 1080p
Видео: MPEG-4 AVC, 4561 Kb/s, 1920x806
Аудио #1: Russian: 48 kHz, AC3 Dolby Digital, 3/2 (L, C, R, l, r) + LFE ch, ~384 Kbps | DUB | iTunes
Аудио #2: English: 48 kHz, AC3 Dolby Digital, 3/2 (L, C, R, l, r) + LFE ch, ~384 Kbps | Original
Субтитры: Нет
Дополнительно: Сохранены оригинальные чаптеры.

MediaInfo:

Complete name : Begi.pryachsya.bey.2020.WEB-DL.1080p.ELEKTRI4KA.UNIONGANG.mkv
Format : Matroska
Format version : Version 4
File size : 4.07 GiB
Duration : 1 h 49 min
Overall bit rate : 5 331 kb/s
Movie name : Begi.pryachsya.bey.2020.WEB-DL.1080p.ELEKTRI4KA.UNIONGANG.
Encoded date : UTC 2021-03-26 15:47:48
Writing application : mkvmerge v8.3.0 ('Over the Horizon') 64bit
Writing library : libebml v1.3.1 + libmatroska v1.4.2
Video
ID : 1
Format : AVC
Format/Info : Advanced Video Codec
Format profile : High@L4
Format settings : CABAC / 5 Ref Frames
Format settings, CABAC : Yes
Format settings, Reference frames : 5 frames
Codec ID : V_MPEG4/ISO/AVC
Duration : 1 h 49 min
Bit rate : 4 561 kb/s
Width : 1 920 pixels
Height : 806 pixels
Display aspect ratio : 2.40:1
Frame rate mode : Constant
Frame rate : 24.000 FPS
Color space : YUV
Chroma subsampling : 4:2:0
Bit depth : 8 bits
Scan type : Progressive
Bits/(Pixel*Frame) : 0.123
Stream size : 3.48 GiB (86%)
Language : English
Default : Yes
Forced : No
Color range : Limited
Color primaries : BT.709
Transfer characteristics : BT.709
Matrix coefficients : BT.709
Audio #1
ID : 2
Format : AC-3
Format/Info : Audio Coding 3
Commercial name : Dolby Digital
Codec ID : A_AC3
Duration : 1 h 49 min
Bit rate mode : Constant
Bit rate : 384 kb/s
Channel(s) : 6 channels
Channel layout : L R C LFE Ls Rs
Sampling rate : 48.0 kHz
Frame rate : 31.250 FPS (1536 SPF)
Compression mode : Lossy
Stream size : 300 MiB (7%)
Title : DUB (iTunes)
Language : Russian
Service kind : Complete Main
Default : Yes
Forced : No
Audio #2
ID : 3
Format : AC-3
Format/Info : Audio Coding 3
Commercial name : Dolby Digital
Codec ID : A_AC3
Duration : 1 h 49 min
Bit rate mode : Constant
Bit rate : 384 kb/s
Channel(s) : 6 channels
Channel layout : L R C LFE Ls Rs
Sampling rate : 48.0 kHz
Frame rate : 31.250 FPS (1536 SPF)
Compression mode : Lossy
Stream size : 300 MiB (7%)
Title : Original
Language : English
Service kind : Complete Main
Default : No
Forced : No
Menu
00:00:00.000 : en:Глава 1
00:08:40.750 : en:Глава 2
00:16:35.291 : en:Глава 3
00:23:36.291 : en:Глава 4
00:31:29.166 : en:Глава 5
00:38:36.416 : en:Глава 6
00:45:36.124 : en:Глава 7
00:52:05.332 : en:Глава 8
00:58:23.373 : en:Глава 9
01:07:06.123 : en:Глава 10
01:14:44.123 : en:Глава 11
01:23:35.164 : en:Глава 12
01:29:31.039 : en:Глава 13
01:36:21.164 : en:Глава 14

Скриншоты

[Цитировать]



Показать сообщения:    

Текущее время: 06-Май 12:53

Часовой пояс: UTC + 6


Вы не можете начинать темы
Вы не можете отвечать на сообщения
Вы не можете редактировать свои сообщения
Вы не можете удалять свои сообщения
Вы не можете голосовать в опросах
Вы не можете прикреплять файлы к сообщениям
Вы не можете скачивать файлы

!ВНИМАНИЕ!
Сайт не предоставляет электронные версии произведений, а занимается лишь коллекционированием и каталогизацией ссылок, присылаемых и публикуемых на форуме нашими читателями. Если вы являетесь правообладателем какого-либо представленного материала и не желаете, чтобы ссылка на него находилась в нашем каталоге, свяжитесь с нами, и мы незамедлительно удалим ее. Файлы для обмена на трекере предоставлены пользователями сайта, и администрация не несет ответственности за их содержание. Просьба не заливать файлы, защищенные авторскими правами, а также файлы нелегального содержания!