***Уважаемые пользователи и гости !!! Сайт переехал на новый домен Torrents-club.info. Просьба изменить ваши закладки! ***
 
[ Сегодня идет свободное скачивание без начисления Download ]


Статистика раздачи
Качаю: [ 1 ]
Скачал: [ 6 ]
 
   
 
 
 
 
Годзилла против Конга / Godzilla vs. Kong- Информация о фильме
Название: Годзилла против Конга
Оригинальное название: Godzilla vs. Kong
Год выхода: 2021
Жанр: Фантастика, боевик
Режиссер: Адам Вингард
В ролях: Александр Скарсгард, Милли Бобби Браун, Ребекка Холл, Брайан Тайри Генри, Сюн Огури, Эйса Гонсалес, Джулиан Деннисон, Лэнс Реддик, Кайл Чандлер, Демиан Бишир
О фильме:
Конг и группа ученых отправляются в опасное путешествие в поисках родного дома гиганта. Среди них девочка Джия, единственная, кто умеет общаться с Конгом. Неожиданно они сталкиваются с разъяренным Годзиллой, разрушающим все на своем пути. Битва двух титанов, спровоцированная неведомыми силами — лишь малая часть тайны, спрятанной в недрах Земли.
Страна: США, Австралия
Студия: Legendary Entertainment, Warner Bros.
Продолжительность: 01:53:09
Перевод: Дублированный (Line), многоголосый профессиональный (HDRezka Studio), авторский одноголосый (М. Яроцкий)
Файл
Формат: MP4
Кодек: H.265
Качество: WebDL 2160p
Видео: HEVC, Dolby Vision Profile 5, 17,9 Mбит/с, 3840x2160, 23.976 кадр/с
Звук:
Аудио #1 Русский: AC3, 48.0 kHz, 6 ch, 448 kb/s | [HDrezka]
Аудио #2 Русский: AC3, 48.0 kHz, 2 ch, 256 kb/s | [Дубляж(LINE)]
Аудио #3 Русский: AC3, 48.0 kHz, 6 ch, 640 kb/s | [Яроцкий]
Аудио #4 Украинский: AC3, 48.0 kHz, 6 ch, 384 kb/s | [HDrezka]
Аудио #5 English: AC3, 48.0 kHz, 6 ch, 640 kb/s | [Original]
Аудио #6 English: E-AC3+Atmos, 5.1, 768 Kbps (отдельным файлом)
Субтитры: русские(forced, полные), украинские(forced), английские(полные)
Дополнительная информация:
Релиз в MP4 в 5-м профиле Dolby Vision для воспроизведении на устройствах с поддержкой DV. Протестировано на тв-боксах Nvidia Shield 2019, Zidoo Z1000 Pro и Ugoos AM6+ и многих других, а также на встроенных плеерах телевизоров LG, Sony, Phillips и Panasonic. На устройствах без поддержки Dolby Vision проигрыватся не будет, так как в видеоряде отсутствуют HDR слой.

Mediainfo

Общее
Полное имя : F:TORRENTSGodzilla.vs.Kong.2021.WEB-DL.2160p.Dolby_Vision.P5.by.DVTGodzilla.vs.Kong.2021.WEB-DL.2160p.Dolby_Vision.P5.by.DVT.mp4
Формат : MPEG-4
Профиль формата : Base Media
Идентификатор кодека : isom (isom)
Размер файла : 16,0 Гбайт
Продолжительность : 1 ч. 53 м.
Режим общего битрейта : Переменный
Общий поток : 20,3 Мбит/сек
Дата кодирования : UTC 2021-04-03 13:12:18
Дата пометки : UTC 2021-04-03 13:12:18
Видео
Идентификатор : 1
Формат : HEVC
Формат/Информация : High Efficiency Video Coding
Профиль формата : Main 10@L5@Main
HDR format : Dolby Vision, Version 1.0, dvhe.05.06, BL+RPU
Идентификатор кодека : dvhe
Идентификатор кодека/Информация : High Efficiency Video Coding with Dolby Vision
Продолжительность : 1 ч. 53 м.
Битрейт : 17,9 Мбит/сек
Ширина : 3 840 пикселей
Высота : 2 160 пикселей
Соотношение сторон : 16:9
Режим частоты кадров : Постоянный
Частота кадров : 23,976 (24000/1001) кадра/сек
Цветовое пространство : YUV
Субдискретизация насыщенности : 4:2:0
Битовая глубина : 10 бит
Бит/(Пиксели*Кадры) : 0.090
Размер потока : 14,2 Гбайт (88%)
Заголовок : Godzilla vs. Kong (2021) - Release by Dolby Vision Torrents
Библиотека кодирования : x265 3.4hy:[Linux][GCC 7.5.0][64 bit] 10bit
Настройки программы : cpuid=1111039 / frame-threads=1 / wpp / no-pmode / no-pme / no-psnr / no-ssim / log-level=2 / input-csp=1 / input-res=3840x2160 / interlace=0 / total-frames=0 / level-idc=0 / high-tier=1 / uhd-bd=0 / ref=4 / no-allow-non-conformance / repeat-headers / annexb / aud / hrd / info / hash=0 / no-temporal-layers / no-open-gop / min-keyint=96 / keyint=96 / gop-lookahead=0 / bframes=4 / b-adapt=2 / b-pyramid / bframe-bias=0 / rc-lookahead=25 / lookahead-slices=4 / scenecut=40 / hist-scenecut=0 / radl=0 / no-splice / no-intra-refresh / ctu=64 / min-cu-size=8 / rect / no-amp / max-tu-size=32 / tu-inter-depth=1 / tu-intra-depth=1 / limit-tu=0 / rdoq-level=2 / dynamic-rd=0.00 / no-ssim-rd / signhide / no-tskip / nr-intra=0 / nr-inter=0 / no-constrained-intra / strong-intra-smoothing / max-merge=3 / limit-refs=3 / limit-modes / me=3 / subme=3 / merange=57 / temporal-mvp / no-frame-dup / no-hme / weightp / no-weightb / no-analyze-src-pics / deblock=0:0 / sao / no-sao-non-deblock / rd=4 / selective-sao=4 / no-early-skip / rskip / no-fast-intra / no-tskip-fast / no-cu-lossless / no-b-intra / no-splitrd-skip / rdpenalty=0 / psy-rd=2.00 / psy-rdoq=1.00 / no-rd-refine / no-lossless / cbqpoffs=0 / crqpoffs=3 / rc=abr / bitrate=18000 / qcomp=0.60 / qpstep=4 / stats-write=0 / stats-read=2 / cplxblur=20.0 / qblur=0.5 / vbv-maxrate=24500 / vbv-bufsize=24500 / vbv-init=0.6 / vbv-end=0.6 / vbv-end-fr-adj=0.0 / ipratio=1.40 / pbratio=1.30 / aq-mode=2 / aq-strength=1.00 / cutree / zone-count=0 / no-strict-cbr / qg-size=32 / no-rc-grain / qpmax=69 / qpmin=0 / no-const-vbv / sar=1 / overscan=0 / videoformat=5 / range=1 / colorprim=2 / transfer=2 / colormatrix=2 / chromaloc=0 / display-window=0 / cll=0,0 / min-luma=0 / max-luma=1023 / log2-max-poc-lsb=8 / vui-timing-info / vui-hrd-info / no-concatenation / slices=1 / no-opt-qp-pps / no-opt-ref-list-length-pps / no-multi-pass-opt-rps / scenecut-bias=0.05 / hist-threshold=0.01 / no-opt-cu-delta-qp / no-aq-motion / no-hdr10 / no-hdr10-opt / no-dhdr10-opt / no-idr-recovery-sei / analysis-reuse-level=0 / analysis-save-reuse-level=0 / analysis-load-reuse-level=0 / scale-factor=0 / refine-intra=0 / refine-inter=0 / refine-mv=1 / refine-ctu-distortion=0 / no-limit-sao / ctu-info=0 / no-lowpass-dct / refine-analysis-type=0 / copy-pic=1 / max-ausize-factor=1.0 / no-dynamic-refine / no-single-sei / no-hevc-aq / no-svt / no-field / qp-adaptation-range=1.00 / no-scenecut-aware-qpconformance-window-offsets / right=0 / bottom=0 / decoder-max-rate=0
Язык : English
Default : Нет
Дата кодирования : UTC 2021-03-31 18:09:29
Дата пометки : UTC 2021-04-03 13:15:10
Цветовой диапазон : Full
Codec configuration box : hvcC+dvcC
Аудио #1
Идентификатор : 2
Формат : AC-3
Формат/Информация : Audio Coding 3
Коммерческое название : Dolby Digital
Идентификатор кодека : ac-3
Продолжительность : 1 ч. 53 м.
Вид битрейта : Постоянный
Битрейт : 448 Кбит/сек
Максимальный битрейт : 473 Кбит/сек
Каналы : 6 каналов
Channel layout : L R C LFE Ls Rs
Частота : 48,0 КГц
Частота кадров : 31,250 кадров/сек (1536 SPF)
Метод сжатия : С потерями
Размер потока : 363 Мбайт (2%)
Заголовок : HDrezka 5.1 ch
Язык : Russian
Service kind : Complete Main
Дата кодирования : UTC 2021-04-03 13:14:45
Дата пометки : UTC 2021-04-03 13:15:10
Аудио #2
Идентификатор : 3
Формат : AC-3
Формат/Информация : Audio Coding 3
Коммерческое название : Dolby Digital
Идентификатор кодека : ac-3
Продолжительность : 1 ч. 53 м.
Вид битрейта : Постоянный
Битрейт : 256 Кбит/сек
Максимальный битрейт : 270 Кбит/сек
Каналы : 2 канала
Channel layout : L R
Частота : 48,0 КГц
Частота кадров : 31,250 кадров/сек (1536 SPF)
Метод сжатия : С потерями
Размер потока : 207 Мбайт (1%)
Заголовок : Russian Dub 5.1 ch
Язык : Russian
Service kind : Complete Main
Дата кодирования : UTC 2021-04-03 13:14:50
Дата пометки : UTC 2021-04-03 13:15:10
Аудио #3
Идентификатор : 4
Формат : AC-3
Формат/Информация : Audio Coding 3
Коммерческое название : Dolby Digital
Идентификатор кодека : ac-3
Продолжительность : 1 ч. 53 м.
Вид битрейта : Постоянный
Битрейт : 640 Кбит/сек
Максимальный битрейт : 676 Кбит/сек
Каналы : 6 каналов
Channel layout : L R C LFE Ls Rs
Частота : 48,0 КГц
Частота кадров : 31,250 кадров/сек (1536 SPF)
Метод сжатия : С потерями
Размер потока : 518 Мбайт (3%)
Заголовок : Yarockiy 5.1 ch
Язык : Russian
Service kind : Complete Main
Дата кодирования : UTC 2021-04-03 13:14:54
Дата пометки : UTC 2021-04-03 13:15:10
Аудио #4
Идентификатор : 5
Формат : AC-3
Формат/Информация : Audio Coding 3
Коммерческое название : Dolby Digital
Идентификатор кодека : ac-3
Продолжительность : 1 ч. 53 м.
Вид битрейта : Постоянный
Битрейт : 384 Кбит/сек
Максимальный битрейт : 406 Кбит/сек
Каналы : 6 каналов
Channel layout : L R C LFE Ls Rs
Частота : 48,0 КГц
Частота кадров : 31,250 кадров/сек (1536 SPF)
Метод сжатия : С потерями
Размер потока : 311 Мбайт (2%)
Заголовок : HDrezka Ukrainian 5.1 ch
Язык : Russian
Service kind : Complete Main
Дата кодирования : UTC 2021-04-03 13:14:59
Дата пометки : UTC 2021-04-03 13:15:10
Аудио #5
Идентификатор : 6
Формат : AC-3
Формат/Информация : Audio Coding 3
Коммерческое название : Dolby Digital
Идентификатор кодека : ac-3
Продолжительность : 1 ч. 53 м.
Вид битрейта : Постоянный
Битрейт : 640 Кбит/сек
Максимальный битрейт : 676 Кбит/сек
Каналы : 6 каналов
Channel layout : L R C LFE Ls Rs
Частота : 48,0 КГц
Частота кадров : 31,250 кадров/сек (1536 SPF)
Метод сжатия : С потерями
Размер потока : 518 Мбайт (3%)
Заголовок : Original 5.1 ch
Язык : English
Service kind : Complete Main
Default : Нет
Дата кодирования : UTC 2021-04-03 13:15:04
Дата пометки : UTC 2021-04-03 13:15:10
Текст #1
Идентификатор : 7
Формат : Timed Text
Идентификатор кодека : tx3g
Продолжительность : 1 ч. 45 м.
Вид битрейта : Переменный
Битрейт : 8 бит/сек
Размер потока : 5,81 Кбайт (0%)
Заголовок : Forced
Язык : Russian
Forced : Да
Дата кодирования : UTC 2021-04-03 13:15:09
Дата пометки : UTC 2021-04-03 13:15:10
Текст #2
Идентификатор : 8
Формат : Timed Text
Идентификатор кодека : tx3g
Продолжительность : 1 ч. 45 м.
Вид битрейта : Переменный
Битрейт : 9 бит/сек
Размер потока : 6,86 Кбайт (0%)
Заголовок : Forced
Язык : Ukrainian
Forced : Нет
Дата кодирования : UTC 2021-04-03 13:15:09
Дата пометки : UTC 2021-04-03 13:15:10
Текст #3
Идентификатор : 9
Формат : Timed Text
Идентификатор кодека : tx3g
Продолжительность : 1 ч. 45 м.
Вид битрейта : Переменный
Битрейт : 71 бит/сек
Размер потока : 55,0 Кбайт (0%)
Заголовок : Full
Язык : Russian
Forced : Нет
Дата кодирования : UTC 2021-04-03 13:15:09
Дата пометки : UTC 2021-04-03 13:15:10
Текст #4
Идентификатор : 10
Формат : Timed Text
Идентификатор кодека : tx3g
Продолжительность : 1 ч. 46 м.
Вид битрейта : Переменный
Битрейт : 61 бит/сек
Размер потока : 47,4 Кбайт (0%)
Заголовок : Full
Язык : English
Forced : Нет
Дата кодирования : UTC 2021-04-03 13:15:10
Дата пометки : UTC 2021-04-03 13:15:10

Скриншоты

Невозможно получить скрины с нормальными цветами с PC, так как невозможно захватить кадр слоя DV если в видеоряде отсутствуют метаданные HDR.

[Цитировать]

https://torrents-club.info/viewtopic.php?t=205432
27.04.2021 торрент обновлен: дубляж (Line) заменен на дубляж iTunes.

[Цитировать]



Показать сообщения:    

Текущее время: 14-Июн 15:26

Часовой пояс: UTC + 6


Вы не можете начинать темы
Вы не можете отвечать на сообщения
Вы не можете редактировать свои сообщения
Вы не можете удалять свои сообщения
Вы не можете голосовать в опросах
Вы не можете прикреплять файлы к сообщениям
Вы не можете скачивать файлы

!ВНИМАНИЕ!
Сайт не предоставляет электронные версии произведений, а занимается лишь коллекционированием и каталогизацией ссылок, присылаемых и публикуемых на форуме нашими читателями. Если вы являетесь правообладателем какого-либо представленного материала и не желаете, чтобы ссылка на него находилась в нашем каталоге, свяжитесь с нами, и мы незамедлительно удалим ее. Файлы для обмена на трекере предоставлены пользователями сайта, и администрация не несет ответственности за их содержание. Просьба не заливать файлы, защищенные авторскими правами, а также файлы нелегального содержания!