***Уважаемые пользователи и гости !!! Сайт переехал на новый домен Torrents-club.info. Просьба изменить ваши закладки! ***
 
[ Сегодня идет свободное скачивание без начисления Download ]


Статистика раздачи
Скачал: [ 3 ]
 
   
 
 
 
 
Информация о фильмеПистолера / PistoleraНазвание: Пистолера
Оригинальное название: Pistolera
Год выхода: 2020
Жанр: драма
Режиссер: Дэмиан Чапа
В ролях: Ромина Ди Лелла, Роберт Дави, Дэнни Трехо, Дэмиан Чапа, Матиас Тобаль, Рианна Барри, Кэмерон Барри, Антонио Гарсиа, Марта Бланк, Мартин Юнхер
О фильме: Когда безжалостный наркобарон Рафаэлло убивает семью маленькой девочки по имени Энджела во время нападения в Испании, он делает одну фатальную ошибку: оставляет ее в живых. Таким образом, Рафаэлло приводит в движение кровавую цепь событий в этой грязной уличной сказке о мести.

Выпущено: США / N1 Production UG, New York International Pictures
Продолжительность: 01:30:49
Озвучивание: Дублированное | iTunes
Файл
Формат: MKV
Качество: WEB-DL 1080p | AMAZON Version
Видео: MPEG-4 AVC, 6653 Kb/s, 1920x1040
Аудио #1: Russian: 48 kHz, AC3 Dolby Digital, 3/2 (L, C, R, l, r) + LFE ch, ~384 Kbps | iTunes
Аудио #2: English: 48 kHz, AC3 Dolby Digital, 3/2 (L, C, R, l, r) + LFE ch, ~384 Kbps | Original
Субтитры: English (хардсаб)
Дополнительно: Нет

MediaInfo:

Complete name: Pistolera.2020.WEB-DL.1080p.ELEKTRI4KA.UNIONGANG.mkv
Format: Matroska
Format version: Version 4 / Version 2
File size: 4.71 GiB
Duration: 1 h 30 min
Overall bit rate: 7 422 kb/s
Movie name: .ELEKTRI4KA.UNIONGANG.
Encoded date: UTC 2020-10-02 16:40:32
Writing application: mkvmerge v8.3.0 ('Over the Horizon') 64bit
Writing library: libebml v1.3.1 + libmatroska v1.4.2
Video
ID: 1
Format: AVC
Format/Info: Advanced Video Codec
Format profile: High@L4
Format settings, CABAC: Yes
Format settings, Reference frames: 4 frames
Codec ID: V_MPEG4/ISO/AVC
Duration: 1 h 30 min
Bit rate: 6 653 kb/s
Width: 1 920 pixels
Height: 1 040 pixels
Display aspect ratio: 1.85:1
Frame rate mode: Constant
Frame rate: 23.976 (24000/1001) FPS
Color space: YUV
Chroma subsampling: 4:2:0
Bit depth: 8 bits
Scan type: Progressive
Bits/(Pixel*Frame): 0.139
Stream size: 4.22 GiB (90%)
Title: .ELEKTRI4KA.UNIONGANG.
Language: English
Default: Yes
Forced: No
Color range: Limited
Color primaries: BT.709
Transfer characteristics: BT.709
Matrix coefficients: BT.709
Audio #1
ID: 2
Format: AC-3
Format/Info: Audio Coding 3
Mode extension: CM (complete main)
Format settings, Endianness: Big
Codec ID: A_AC3
Duration: 1 h 30 min
Bit rate mode: Constant
Bit rate: 384 kb/s
Channel(s): 6 channels
Channel positions: Front: L C R, Side: L R, LFE
Sampling rate: 48.0 kHz
Frame rate: 31.250 FPS (1536 spf)
Bit depth: 16 bits
Compression mode: Lossy
Delay relative to video: -83 ms
Stream size: 249 MiB (5%)
Title: iTunes
Language: Russian
Default: Yes
Forced: Yes
Audio #2
ID: 3
Format: AC-3
Format/Info: Audio Coding 3
Mode extension: CM (complete main)
Format settings, Endianness: Big
Codec ID: A_AC3
Duration: 1 h 30 min
Bit rate mode: Constant
Bit rate: 384 kb/s
Channel(s): 6 channels
Channel positions: Front: L C R, Side: L R, LFE
Sampling rate: 48.0 kHz
Frame rate: 31.250 FPS (1536 spf)
Bit depth: 16 bits
Compression mode: Lossy
Delay relative to video: -83 ms
Stream size: 249 MiB (5%)
Title: Original
Language: English
Default: No
Forced: No

Скриншоты

[Цитировать]



Показать сообщения:    

Текущее время: 05-Авг 16:11

Часовой пояс: UTC + 6


Вы не можете начинать темы
Вы не можете отвечать на сообщения
Вы не можете редактировать свои сообщения
Вы не можете удалять свои сообщения
Вы не можете голосовать в опросах
Вы не можете прикреплять файлы к сообщениям
Вы не можете скачивать файлы

!ВНИМАНИЕ!
Сайт не предоставляет электронные версии произведений, а занимается лишь коллекционированием и каталогизацией ссылок, присылаемых и публикуемых на форуме нашими читателями. Если вы являетесь правообладателем какого-либо представленного материала и не желаете, чтобы ссылка на него находилась в нашем каталоге, свяжитесь с нами, и мы незамедлительно удалим ее. Файлы для обмена на трекере предоставлены пользователями сайта, и администрация не несет ответственности за их содержание. Просьба не заливать файлы, защищенные авторскими правами, а также файлы нелегального содержания!