***Уважаемые пользователи и гости !!! Сайт переехал на новый домен Torrents-club.info. Просьба изменить ваши закладки! ***
 
[ Сегодня идет свободное скачивание без начисления Download ]


Статистика раздачи
Скачал: [ 1 ]
 
   
 
 
 
 
КлятваСтрана: Россия
Жанр: биография, военный, драма, история
Год выпуска: 2019
Продолжительность: 02:00:12
Перевод: Не требуется
Субтитры: нет
Оригинальная аудиодорожка: русский
Режиссер: Роман Нестеренко
В ролях: Александр Баргман, Анна Вартанян, Дмитрий Готсдинер, Игорь Грабузов, Алёна Козырева, Николай Сердцев, Артём Болотовский, Владимир Роганов, Василий Мищенко, Юрий Цурило
Описание: История о главном враче психиатрической больницы Науме Балабане и его жене Елизавете Нелидовой. Из двух влюбленных в нее друзей она сделала выбор в пользу Наума. Фильм охватывает период жизни героев с 1910 по 1942 год. На их долю выпало немало трагедий и испытаний... В годы репрессий Балабан спасал людей от НКВД, приписывая им психиатрические диагнозы. А оказавшись в немецкой оккупации, помогал евреям и спас большую часть своих пациентов.

Сэмпл
Качество видео: WEB-DLRip-AVC | Исходник: WEB-DL 1080p (thx ViktorMzz)
Формат видео: MKV
Видео кодек: AVC
Аудио кодек: AC3
Видео: AVC, 1500 Кбит/сек, 1130x472 (2.40:1), 24 кадр/сек
Аудио: AC3, 192 Кбит/сек, 48 КГц, 2.0 - русский

x264/MediaInfo

---[Information] [02.05.2021 16:44:43] x264 [info]: frame I:1369 Avg QP:16.89 size: 42976
---[Information] [02.05.2021 16:44:43] x264 [info]: frame P:42187 Avg QP:18.25 size: 15842
---[Information] [02.05.2021 16:44:43] x264 [info]: frame B:129547 Avg QP:21.29 size: 4826
---[Information] [02.05.2021 16:44:43] x264 [info]: consecutive B-frames: 2.7% 4.0% 8.0% 40.9% 15.5% 18.8% 5.3% 3.3% 0.8% 0.3% 0.1% 0.0% 0.0% 0.0% 0.0% 0.2%
General
Unique ID : 76210758570153228878622446831087804442 (0x3955A87FE446405C65131CA9FB06601A)
Complete name : J:Kljatva.2019Kljatva.2019.WEB-DLRip.x264.Rus.stalkerok.New-Team.mkv
Format : Matroska
Format version : Version 4
File size : 1.42 GiB
Duration : 2 h 0 min
Overall bit rate : 1 694 kb/s
Movie name : Клятва (2019) | Rip by stalkerok
Encoded date : UTC 2021-05-02 14:13:28
Writing application : mkvmerge v56.1.0 ('My Friend') 64-bit
Writing library : libebml v1.4.2 + libmatroska v1.6.4
Video
ID : 1
Format : AVC
Format/Info : Advanced Video Codec
Format profile : High@L4.1
Format settings : CABAC / 12 Ref Frames
Format settings, CABAC : Yes
Format settings, Reference frames : 12 frames
Codec ID : V_MPEG4/ISO/AVC
Duration : 2 h 0 min
Bit rate : 1 500 kb/s
Width : 1 130 pixels
Height : 472 pixels
Display aspect ratio : 2.40:1
Frame rate mode : Constant
Frame rate : 24.000 FPS
Color space : YUV
Chroma subsampling : 4:2:0
Bit depth : 8 bits
Scan type : Progressive
Bits/(Pixel*Frame) : 0.117
Stream size : 1.26 GiB (89%)
Title : Rip by stalkerok
Writing library : x264 core 161 r3043+53M 5ab00ad t_mod_New [(8 & 10)-bit@all X86_64]
Encoding settings : cabac=1 / ref=12 / deblock=1:-3:-3 / analyse=0x3:0x133 / me=umh / subme=10 / psy=1 / fade_compensate=0.00 / psy_rd=1.00:0.00 / mixed_ref=1 / me_range=32 / chroma_me=1 / trellis=2 / 8x8dct=1 / cqm=0 / deadzone=21,11 / fast_pskip=0 / chroma_qp_offset=-2 / threads=12 / lookahead_threads=3 / sliced_threads=0 / nr=0 / decimate=1 / interlaced=0 / bluray_compat=0 / constrained_intra=0 / fgo=0 / bframes=15 / b_pyramid=2 / b_adapt=2 / b_bias=0 / direct=3 / weightb=1 / open_gop=0 / weightp=2 / keyint=240 / keyint_min=24 / scenecut=40 / intra_refresh=0 / rc_lookahead=60 / rc=crf / mbtree=0 / crf=19.6000 / qcomp=0.65 / qpmin=0:0:0 / qpmax=69:69:69 / qpstep=4 / vbv_maxrate=50000 / vbv_bufsize=62500 / crf_max=0.0 / nal_hrd=none / filler=0 / ip_ratio=1.40 / pb_ratio=1.30 / aq=3:0.90 / aq-sensitivity=10.00 / aq-factor=1.00:1.00:1.00 / aq2=0 / aq3=0
Default : Yes
Forced : No
Audio
ID : 2
Format : AC-3
Format/Info : Audio Coding 3
Commercial name : Dolby Digital
Codec ID : A_AC3
Duration : 2 h 0 min
Bit rate mode : Constant
Bit rate : 192 kb/s
Channel(s) : 2 channels
Channel layout : L R
Sampling rate : 48.0 kHz
Frame rate : 31.250 FPS (1536 SPF)
Compression mode : Lossy
Stream size : 165 MiB (11%)
Language : Russian
Service kind : Complete Main
Default : Yes
Forced : No

Скриншоты:

[Цитировать]



Показать сообщения:    

Текущее время: 11-Май 10:27

Часовой пояс: UTC + 6


Вы не можете начинать темы
Вы не можете отвечать на сообщения
Вы не можете редактировать свои сообщения
Вы не можете удалять свои сообщения
Вы не можете голосовать в опросах
Вы не можете прикреплять файлы к сообщениям
Вы не можете скачивать файлы

!ВНИМАНИЕ!
Сайт не предоставляет электронные версии произведений, а занимается лишь коллекционированием и каталогизацией ссылок, присылаемых и публикуемых на форуме нашими читателями. Если вы являетесь правообладателем какого-либо представленного материала и не желаете, чтобы ссылка на него находилась в нашем каталоге, свяжитесь с нами, и мы незамедлительно удалим ее. Файлы для обмена на трекере предоставлены пользователями сайта, и администрация не несет ответственности за их содержание. Просьба не заливать файлы, защищенные авторскими правами, а также файлы нелегального содержания!