***Уважаемые пользователи и гости !!! Сайт переехал на новый домен Torrents-club.info. Просьба изменить ваши закладки! ***
 
[ Сегодня идет свободное скачивание без начисления Download ]


Статистика раздачи
Скачал: [ 3 ]
 
   
 
 
 
 
Сержант (2021) HDTVRip [H.264] (сезон 1, серии 1-4 из 4)- Производство: Россия / Кинокомпания "Альянс"
Жанр: Боевик, криминал
Режиссер: Денис Карро
Продюсер: Владимир Тюлин, Анатолий Тупицын, Максим Королев
Актеры: Владимир Епифанцев, Михаил Пореченков, Игорь Жижикин, Сергей Бадюк, Виктория Тарасова, Павел Попов, Дмитрий Куличков, Алексей Назаров, Илья Семенов, Светлана Смирнова-Марцинкевич
Описание:
В центре сюжета – сержант спецназа внутренних войск, молчаливый и суровый мастер военного дела, которого разъедает изнутри вина за гибель своего взвода. Он становится случайным свидетелем убийства и находит компромат на крупного бизнесмена, после чего на него начинается охота. Наёмники, коррумпированные силовики – все они не помеха на пути у главного героя. Сержант пойдёт на всё, чтобы выяснить обстоятельства гибели взвода, тем более, когда компромат имеет прямое к этому отношение.

Возраст: 16+ (зрителям, достигшим 16 лет)
Дата российской премьеры: 3 мая 2021
Продолжительность: ~00:43:00 серия
Качество видео: HDTVRip
Видео: AVC/H.264, 1024x432, ~1600 kbps
Аудио: AC3, 2 ch, 192 kbps

MediaInfo:

Общее
Уникальный идентификатор : 240964483430723849174804633463254385143 (0xB548124867860A8992A1183C614381F7)
Полное имя : F:\[Anf]_Сержант_(2021)_HDTVRip_[H.264]\[Anf]_01 серия_Сержант_(2021)_HDTVRip_[H.264].mkv
Формат : Matroska
Версия формата : Version 2
Размер файла : 546 Мбайт
Продолжительность : 42 м. 31 с.
Общий поток : 1 794 Кбит/сек
Дата кодирования : UTC 2021-05-03 18:04:50
Программа кодирования : mkvmerge v7.8.0 ('River Man') 32bit built on Apr 3 2015 12:11:22
Библиотека кодирования : libebml v1.3.1 + libmatroska v1.4.2
Видео
Идентификатор : 1
Формат : AVC
Формат/Информация : Advanced Video Codec
Профиль формата : High@L4.1
Настройки формата : CABAC / 9 Ref Frames
Параметр CABAC формата : Да
Параметр RefFrames формата : 9 кадров
Идентификатор кодека : V_MPEG4/ISO/AVC
Продолжительность : 42 м. 31 с.
Битрейт : 1 600 Кбит/сек
Ширина : 1 024 пикселя
Высота : 432 пикселя
Соотношение сторон : 2,40:1
Режим частоты кадров : Постоянный
Частота кадров : 25,000 кадров/сек
Цветовое пространство : YUV
Субдискретизация насыщенности : 4:2:0
Битовая глубина : 8 бит
Тип развёртки : Прогрессивная
Бит/(Пиксели*Кадры) : 0.145
Размер потока : 476 Мбайт (87%)
Библиотека кодирования : x264 core 146 r2538 121396c
Настройки программы : cabac=1 / ref=9 / deblock=1:-2:-1 / analyse=0x3:0x133 / me=umh / subme=9 / psy=1 / psy_rd=1.00:0.15 / mixed_ref=1 / me_range=32 / chroma_me=1 / trellis=2 / 8x8dct=1 / cqm=0 / deadzone=21,11 / fast_pskip=0 / chroma_qp_offset=-3 / threads=18 / lookahead_threads=3 / sliced_threads=0 / nr=0 / decimate=1 / interlaced=0 / bluray_compat=0 / constrained_intra=0 / bframes=9 / b_pyramid=2 / b_adapt=2 / b_bias=0 / direct=1 / weightb=1 / open_gop=0 / weightp=2 / keyint=250 / keyint_min=25 / scenecut=40 / intra_refresh=0 / rc=2pass / mbtree=0 / bitrate=1600 / ratetol=1.0 / qcomp=0.60 / qpmin=0 / qpmax=69 / qpstep=4 / cplxblur=20.0 / qblur=0.5 / ip_ratio=1.40 / pb_ratio=1.30 / aq=2:1.00
Default : Да
Forced : Нет
Цветовой диапазон : Limited
Основные цвета : BT.709
Характеристики трансфера : BT.709
Коэффициенты матрицы : BT.709
Аудио
Идентификатор : 2
Формат : AC-3
Формат/Информация : Audio Coding 3
Коммерческое название : Dolby Digital
Идентификатор кодека : A_AC3
Продолжительность : 42 м. 31 с.
Вид битрейта : Постоянный
Битрейт : 192 Кбит/сек
Каналы : 2 канала
Channel layout : L R
Частота : 48,0 КГц
Частота кадров : 31,250 кадров/сек (1536 SPF)
Метод сжатия : С потерями
Размер потока : 58,4 Мбайт (11%)
Service kind : Complete Main
Default : Да
Forced : Нет

Скриншоты:

[Цитировать]



Показать сообщения:    

Текущее время: 11-Май 10:42

Часовой пояс: UTC + 6


Вы не можете начинать темы
Вы не можете отвечать на сообщения
Вы не можете редактировать свои сообщения
Вы не можете удалять свои сообщения
Вы не можете голосовать в опросах
Вы не можете прикреплять файлы к сообщениям
Вы не можете скачивать файлы

!ВНИМАНИЕ!
Сайт не предоставляет электронные версии произведений, а занимается лишь коллекционированием и каталогизацией ссылок, присылаемых и публикуемых на форуме нашими читателями. Если вы являетесь правообладателем какого-либо представленного материала и не желаете, чтобы ссылка на него находилась в нашем каталоге, свяжитесь с нами, и мы незамедлительно удалим ее. Файлы для обмена на трекере предоставлены пользователями сайта, и администрация не несет ответственности за их содержание. Просьба не заливать файлы, защищенные авторскими правами, а также файлы нелегального содержания!