***Уважаемые пользователи и гости !!! Сайт переехал на новый домен Torrents-club.info. Просьба изменить ваши закладки! ***
 
[ Сегодня идет свободное скачивание без начисления Download ]


Статистика раздачи
Скачал: [ 1 ]
 
   
 
 
 
 
Москвы не бываетИнформация о фильме
Название: Москвы не бывает
Год выхода: 2020
Жанр: Комедия, триллер, фантастика
Режиссер: Дмитрий Федоров
В ролях: Иван Федотов, Ольга Старченкова, Анатолий Горячев, Павел Сборщиков, Виталий Абдулов, Елена Ворончихина, Анна Гуляренко, Наталья Платонова, Александр Аблязов, Ирина Гавра
О фильме:
Постоянное безденежье, аварийное жилье, усатая стервозная подруга – так проходит жизнь разнорабочего Лехи в маленьком провинциальном городе Улетное. Он давно со всем смирился и просто плывет по течению. Все меняется, когда в городе появляется человек из столицы. Во что бы то ни стало он хочет снять разваленную квартиру умершего поэта-бомжа, который писал сумасшедшие стихи о том, что Москвы не бывает. Между тем, Леха знакомится с девушкой Машей. У нее на фотоаппарате герой обнаруживает свои снимки 4-дневной давности. Однако ни снимков, ни саму Машу Леха почему-то совсем не помнит, билетов до Москвы – никогда не бывает в кассе, столичный гость – совсем не тот, за кого себя выдает, а их провинциальный город – не совсем провинциальный и даже не совсем город..

Выпущено: Россия
Продолжительность: 01:37:58
Озвучивание: Оригинальное | iTunes
Файл
Формат: MKV
Качество: WEB-DL 1080p
Видео: MPEG-4 AVC, 4521 Kb/s, 1920x816
Аудио #1: Russian: 48 kHz, AC3 Dolby Digital, 2/0 (L, R) ch, ~192 Kbps | iTunes
Аудио #2: Russian: 48 kHz, Advanced Audio Codec, 2/0 (L, R) ch, ~124 Kbps | iTunes
Субтитры: Нет
Дополнительно: Сохранены оригинальные чаптеры.

MediaInfo:

Complete name : Moskvyi.ne.byivaet.2020.WEB-DL.1080p.ELEKTRI4KA.UNIONGANG.mkv
Format : Matroska
Format version : Version 4
File size : 3.31 GiB
Duration : 1 h 37 min
Overall bit rate : 4 840 kb/s
Movie name : Moskvyi.ne.byivaet.2020.WEB-DL.1080p.ELEKTRI4KA.UNIONGANG.
Encoded date : UTC 2021-06-03 18:27:48
Writing application : mkvmerge v8.3.0 ('Over the Horizon') 64bit
Writing library : libebml v1.3.1 + libmatroska v1.4.2
Video
ID : 1
Format : AVC
Format/Info : Advanced Video Codec
Format profile : High@L4
Format settings : CABAC / 5 Ref Frames
Format settings, CABAC : Yes
Format settings, Reference frames : 5 frames
Codec ID : V_MPEG4/ISO/AVC
Duration : 1 h 37 min
Bit rate : 4 521 kb/s
Width : 1 920 pixels
Height : 816 pixels
Display aspect ratio : 2.35:1
Frame rate mode : Constant
Frame rate : 25.000 FPS
Color space : YUV
Chroma subsampling : 4:2:0
Bit depth : 8 bits
Scan type : Progressive
Bits/(Pixel*Frame) : 0.115
Stream size : 3.09 GiB (93%)
Language : English
Default : Yes
Forced : No
Color range : Limited
Color primaries : BT.709
Transfer characteristics : BT.709
Matrix coefficients : BT.709
Audio #1
ID : 2
Format : AC-3
Format/Info : Audio Coding 3
Commercial name : Dolby Digital
Codec ID : A_AC3
Duration : 1 h 37 min
Bit rate mode : Constant
Bit rate : 192 kb/s
Channel(s) : 2 channels
Channel layout : L R
Sampling rate : 48.0 kHz
Frame rate : 31.250 FPS (1536 SPF)
Compression mode : Lossy
Stream size : 135 MiB (4%)
Title : Original AC3 (iTunes)
Language : Russian
Service kind : Complete Main
Default : Yes
Forced : Yes
Audio #2
ID : 3
Format : AAC LC
Format/Info : Advanced Audio Codec Low Complexity
Codec ID : A_AAC-2
Duration : 1 h 37 min
Bit rate : 124 kb/s
Channel(s) : 2 channels
Channel layout : L R
Sampling rate : 48.0 kHz
Frame rate : 46.875 FPS (1024 SPF)
Compression mode : Lossy
Stream size : 87.2 MiB (3%)
Title : Original AAC (iTunes)
Language : Russian
Default : No
Forced : No
Menu
00:00:00.000 : en:Глава 1
00:08:51.640 : en:Глава 2
00:17:14.760 : en:Глава 3
00:25:40.920 : en:Глава 4
00:34:01.520 : en:Глава 5
00:42:24.840 : en:Глава 6
00:50:47.000 : en:Глава 7
00:59:25.280 : en:Глава 8
01:08:09.240 : en:Глава 9
01:16:28.840 : en:Глава 10
01:25:29.360 : en:Глава 11

Скриншоты

[Цитировать]



Показать сообщения:    

Текущее время: 20-Сен 02:30

Часовой пояс: UTC + 6


Вы не можете начинать темы
Вы не можете отвечать на сообщения
Вы не можете редактировать свои сообщения
Вы не можете удалять свои сообщения
Вы не можете голосовать в опросах
Вы не можете прикреплять файлы к сообщениям
Вы не можете скачивать файлы

!ВНИМАНИЕ!
Сайт не предоставляет электронные версии произведений, а занимается лишь коллекционированием и каталогизацией ссылок, присылаемых и публикуемых на форуме нашими читателями. Если вы являетесь правообладателем какого-либо представленного материала и не желаете, чтобы ссылка на него находилась в нашем каталоге, свяжитесь с нами, и мы незамедлительно удалим ее. Файлы для обмена на трекере предоставлены пользователями сайта, и администрация не несет ответственности за их содержание. Просьба не заливать файлы, защищенные авторскими правами, а также файлы нелегального содержания!