***Уважаемые пользователи и гости !!! Сайт переехал на новый домен Torrents-club.info. Просьба изменить ваши закладки! ***
 
[ Сегодня идет свободное скачивание без начисления Download ]


Статистика раздачи
Скачал: [ 2 ]
 
   
 
 
 
 
Неспящие / AwakeГод выпуска: 2021
Страна / студия: США, Aurum Producciones S.A., Netflix, Paul Schiff Productions
Жанр: Фантастика, боевик, триллер, драма, приключения
Продолжительность: 01:37:21
Перевод: Профессиональный дублированный VSI Moscow по заказу Netflix
Режиссер: Марк Расо
В ролях: Джина Родригес, Ариана Гринблатт, Фрэнсис Фишер, Дженнифер Джейсон Ли, Барри Пеппер, Шамир Андерсон, Финн Джонс, Люсиус Хойос, Гил Беллоуз, Себастьян Пижотт
О фильме: В результате глобальной катастрофы перестают работать электронные приборы и люди теряют способность спать. Мир погружается в хаос. Только у Джилл, бывшей военнослужащей с непростым прошлым, возможно, есть ключ к спасению - ее собственная дочь.

Качество: WEB-DL 1080p |Awake.2021.1080p.NF.WEB-DL.x265.10bit.HDR.DDP5.1-AGLET
Видео: MPEG-H HEVC, HDR10, 4240 Кбит/с, 1920x1080, 10 бит
Аудио 1: АС3, 6 ch, 640 Кбит/с Rus
Аудио 2: E-АС3, 6 ch, 640 Кбит/с Rus
Аудио 3: E-АС3+atmos, 6 ch, 768 Кбит/с Eng
Субтитры: Русские (Forced, Full), английские

Скриншоты


Инфо

Общее
Уникальный идентификатор : 191610142964711083710504600087636726349 (0x9026C56D423AEBA4141F608BE56FD24D)
Полное имя : Awake.2021.1080p.HEVC.WEB-DL_Gateberg.mkv
Формат : Matroska
Версия формата : Version 4
Размер файла : 4,34 Гбайт
Продолжительность : 1 ч. 37 м.
Общий поток : 6 386 Кбит/сек
Название фильма : Awake.2021.1080p.HEVC.WEB-DL_Gateberg
Дата кодирования : UTC 2021-06-09 11:56:10
Программа кодирования : mkvmerge v53.0.0 ('Fool's Gold') 64-bit
Библиотека кодирования : libebml v1.4.1 + libmatroska v1.6.2
Видео
Идентификатор : 1
Формат : HEVC
Формат/Информация : High Efficiency Video Coding
Профиль формата : Main 10@L4@Main
HDR format : SMPTE ST 2086, HDR10 compatible
Идентификатор кодека : V_MPEGH/ISO/HEVC
Продолжительность : 1 ч. 35 м.
Битрейт : 4 408 Кбит/сек
Ширина : 1 920 пикселей
Высота : 1 080 пикселей
Соотношение сторон : 16:9
Режим частоты кадров : Постоянный
Частота кадров : 24,000 кадра/сек
Цветовое пространство : YUV
Субдискретизация насыщенности : 4:2:0 (Type 2)
Битовая глубина : 10 бит
Бит/(Пиксели*Кадры) : 0.089
Размер потока : 2,95 Гбайт (68%)
Default : Да
Forced : Нет
Цветовой диапазон : Limited
Основные цвета : BT.2020
Характеристики трансфера : PQ
Коэффициенты матрицы : BT.2020 non-constant
Mastering display color primaries : Display P3
Mastering display luminance : min: 0.0001 cd/m2, max: 1000 cd/m2
Maximum Content Light Level : 1353 cd/m2
Maximum Frame-Average Light Level : 343 cd/m2
Аудио #1
Идентификатор : 2
Формат : AC-3
Формат/Информация : Audio Coding 3
Коммерческое название : Dolby Digital
Идентификатор кодека : A_AC3
Продолжительность : 1 ч. 37 м.
Вид битрейта : Постоянный
Битрейт : 640 Кбит/сек
Каналы : 6 каналов
Channel layout : L R C LFE Ls Rs
Частота : 48,0 КГц
Частота кадров : 31,250 кадров/сек (1536 SPF)
Метод сжатия : С потерями
Размер потока : 446 Мбайт (10%)
Заголовок : [DUB] VSI Moscow (AC3.5.1)
Язык : Russian
Service kind : Complete Main
Default : Да
Forced : Нет
Аудио #2
Идентификатор : 3
Формат : E-AC-3
Формат/Информация : Enhanced AC-3
Коммерческое название : Dolby Digital Plus
Идентификатор кодека : A_EAC3
Продолжительность : 1 ч. 37 м.
Вид битрейта : Постоянный
Битрейт : 640 Кбит/сек
Каналы : 6 каналов
Channel layout : L R C LFE Ls Rs
Частота : 48,0 КГц
Частота кадров : 31,250 кадров/сек (1536 SPF)
Метод сжатия : С потерями
Размер потока : 446 Мбайт (10%)
Заголовок : [DUB] VSI Moscow (EAC3.5.1)
Язык : Russian
Service kind : Complete Main
Default : Нет
Forced : Нет
Аудио #3
Идентификатор : 4
Формат : E-AC-3 JOC
Формат/Информация : Enhanced AC-3 with Joint Object Coding
Коммерческое название : Dolby Digital Plus with Dolby Atmos
Идентификатор кодека : A_EAC3
Продолжительность : 1 ч. 37 м.
Вид битрейта : Постоянный
Битрейт : 768 Кбит/сек
Каналы : 6 каналов
Channel layout : L R C LFE Ls Rs
Частота : 48,0 КГц
Частота кадров : 31,250 кадров/сек (1536 SPF)
Метод сжатия : С потерями
Размер потока : 535 Мбайт (12%)
Заголовок : Original
Язык : English
Service kind : Complete Main
Default : Нет
Forced : Нет
Complexity index : 16
Number of dynamic objects : 15
Bed channel count : 1 канал
Bed channel configuration : LFE
Текст #1
Идентификатор : 5
Формат : UTF-8
Идентификатор кодека : S_TEXT/UTF8
Идентификатор кодека/Информация : UTF-8 Plain Text
Продолжительность : 1 ч. 35 м.
Битрейт : 0 бит/сек
Count of elements : 10
Размер потока : 402 байт (0%)
Заголовок : [Forced]
Язык : Russian
Default : Да
Forced : Да
Текст #2
Идентификатор : 6
Формат : UTF-8
Идентификатор кодека : S_TEXT/UTF8
Идентификатор кодека/Информация : UTF-8 Plain Text
Продолжительность : 1 ч. 35 м.
Битрейт : 65 бит/сек
Count of elements : 1120
Размер потока : 45,4 Кбайт (0%)
Заголовок : [Full]
Язык : Russian
Default : Нет
Forced : Нет
Текст #3
Идентификатор : 7
Формат : UTF-8
Идентификатор кодека : S_TEXT/UTF8
Идентификатор кодека/Информация : UTF-8 Plain Text
Продолжительность : 1 ч. 28 м.
Битрейт : 64 бит/сек
Count of elements : 1537
Размер потока : 41,7 Кбайт (0%)
Заголовок : [Full]
Язык : English
Default : Нет
Forced : Нет

[Цитировать]



Показать сообщения:    

Текущее время: 20-Сен 02:21

Часовой пояс: UTC + 6


Вы не можете начинать темы
Вы не можете отвечать на сообщения
Вы не можете редактировать свои сообщения
Вы не можете удалять свои сообщения
Вы не можете голосовать в опросах
Вы не можете прикреплять файлы к сообщениям
Вы не можете скачивать файлы

!ВНИМАНИЕ!
Сайт не предоставляет электронные версии произведений, а занимается лишь коллекционированием и каталогизацией ссылок, присылаемых и публикуемых на форуме нашими читателями. Если вы являетесь правообладателем какого-либо представленного материала и не желаете, чтобы ссылка на него находилась в нашем каталоге, свяжитесь с нами, и мы незамедлительно удалим ее. Файлы для обмена на трекере предоставлены пользователями сайта, и администрация не несет ответственности за их содержание. Просьба не заливать файлы, защищенные авторскими правами, а также файлы нелегального содержания!