***Уважаемые пользователи и гости !!! Сайт переехал на новый домен Torrents-club.info. Просьба изменить ваши закладки! ***
 
[ Сегодня идет свободное скачивание без начисления Download ]


Статистика раздачи
Скачал: [ 2 ]
 
   
 
 
 
 
Информация о фильме
Название: Райская бухта
Оригинальное название: Paradise Cove
Год выхода: 2021
Жанр: Триллер
Режиссер: Мартин Гиги
В ролях: Тодд Гриннелл, Мена Сувари, Кристин Бауэр, Эдди Гоинс, Криста Аллен, Horacio Galaviz, Эдди Ривера, Рубен Гарфиас, Келси Коллинз, Карл Т. Райт
О фильме: Строительный подрядчик Нокс и его жена Трейси переезжают в Малибу, чтобы отремонтировать доставшийся им в наследство пляжный домик, под которым поселилась бездомная женщина. Вскоре между ней и супругами разгорается настоящая война.

Страна: США
Студия: Sunset Pictures, Thunder Studios
Продолжительность: 01:43:37
Перевод: Профессиональный (полное дублирование) | iTunes
Субтитры: Отсутствуют
Файл
Формат: Matroska
Качество: WEB-DLRip-AVC
Видео: 1024x426 at 24.000 fps, x264@L4.1, ~1620 kbps, 0.155 bpp
Аудио: AC3, 6 ch, ~384 kbps - | Русский | -
***Релиз: -=DoMiNo=-

M/I

x264 [info]: frame I:1123 Avg QP:16.90 size: 49778
x264 [info]: frame P:38031 Avg QP:18.45 size: 17543
x264 [info]: frame B:110055 Avg QP:20.42 size: 4860
General
Format : Matroska
Format version : Version 4
File size : 1.45 GiB
Duration : 1 h 43 min
Overall bit rate : 2 005 kb/s
Movie name : Райская бухта.(2021).WEB-DLRip-AVC.[-=DoMiNo=-]
Encoded date : UTC 2021-06-10 13:25:16
Writing application : mkvmerge v57.0.0 ('Till The End') 64-bit
Writing library : libebml v1.4.2 + libmatroska v1.6.4
Cover : Yes
Attachments : Cover.jpg / Cover 2.jpg
Video
ID : 1
Format : AVC
Format/Info : Advanced Video Codec
Format profile : High@L4.1
Format settings : CABAC / 12 Ref Frames
Format settings, CABAC : Yes
Format settings, Reference : 12 frames
Codec ID : V_MPEG4/ISO/AVC
Duration : 1 h 43 min
Bit rate : 1 620 kb/s
Width : 1 024 pixels
Height : 426 pixels
Display aspect ratio : 2.40:1
Frame rate mode : Constant
Frame rate : 24.000 FPS
Color space : YUV
Chroma subsampling : 4:2:0
Bit depth : 8 bits
Scan type : Progressive
Bits/(Pixel*Frame) : 0.155
Stream size : 1.17 GiB (81%)
Title : -=DoMiNo=-
Writing library : x264 core 163 r3059 b684ebe
Encoding settings : cabac=1 / ref=12 / deblock=1:-3:-3 / analyse=0x3:0x133 / me=umh / subme=11 / psy=1 / psy_rd=1.03:0.15 / mixed_ref=1 / me_range=48 / chroma_me=1 / trellis=2 / 8x8dct=1 / cqm=0 / deadzone=21,11 / fast_pskip=0 / chroma_qp_offset=-3 / threads=32 / lookahead_threads=3 / sliced_threads=0 / nr=0 / decimate=0 / interlaced=0 / bluray_compat=0 / constrained_intra=0 / bframes=10 / b_pyramid=2 / b_adapt=2 / b_bias=0 / direct=3 / weightb=1 / open_gop=0 / weightp=2 / keyint=250 / keyint_min=24 / scenecut=40 / intra_refresh=0 / rc_lookahead=60 / rc=2pass / mbtree=0 / bitrate=1620 / ratetol=1.0 / qcomp=0.65 / qpmin=0 / qpmax=69 / qpstep=4 / cplxblur=20.0 / qblur=0.5 / vbv_maxrate=50000 / vbv_bufsize=62500 / nal_hrd=none / filler=0 / ip_ratio=1.20 / pb_ratio=1.30 / aq=3:1.00
Language : English
Default : Yes
Forced : No
Color range : Limited
Color primaries : BT.709
Transfer characteristics : BT.709
Matrix coefficients : BT.709
Audio
ID : 2
Format : AC-3
Format/Info : Audio Coding 3
Commercial name : Dolby Digital
Codec ID : A_AC3
Duration : 1 h 43 min
Bit rate mode : Constant
Bit rate : 384 kb/s
Channel(s) : 6 channels
Channel layout : L R C LFE Ls Rs
Sampling rate : 48.0 kHz
Frame rate : 31.250 FPS (1536 SPF)
Compression mode : Lossy
Stream size : 285 MiB (19%)
Title : iTunes
Language : Russian
Service kind : Complete Main
Default : Yes
Forced : No
Menu
00:00:00.000 : Глава 1
00:08:16.458 : Глава 2
00:17:20.499 : Глава 3
00:26:06.124 : Глава 4
00:34:34.624 : Глава 5
00:43:04.832 : Глава 6
00:51:48.832 : Глава 7
01:00:15.957 : Глава 8
01:08:22.082 : Глава 9
01:17:00.373 : Глава 10
01:25:14.248 : Глава 11
01:33:39.206 : Глава 12

Скриншоты

[Цитировать]



Показать сообщения:    

Текущее время: 19-Июн 06:49

Часовой пояс: UTC + 6


Вы не можете начинать темы
Вы не можете отвечать на сообщения
Вы не можете редактировать свои сообщения
Вы не можете удалять свои сообщения
Вы не можете голосовать в опросах
Вы не можете прикреплять файлы к сообщениям
Вы не можете скачивать файлы

!ВНИМАНИЕ!
Сайт не предоставляет электронные версии произведений, а занимается лишь коллекционированием и каталогизацией ссылок, присылаемых и публикуемых на форуме нашими читателями. Если вы являетесь правообладателем какого-либо представленного материала и не желаете, чтобы ссылка на него находилась в нашем каталоге, свяжитесь с нами, и мы незамедлительно удалим ее. Файлы для обмена на трекере предоставлены пользователями сайта, и администрация не несет ответственности за их содержание. Просьба не заливать файлы, защищенные авторскими правами, а также файлы нелегального содержания!