***Уважаемые пользователи и гости !!! Сайт переехал на новый домен Torrents-club.info. Просьба изменить ваши закладки! ***
 
[ Сегодня идет свободное скачивание без начисления Download ]


Статистика раздачи
Скачал: [ 5 ]
 
   
 
 
 
 
Бесконечность / Infinite- Информация о фильме
Название: Бесконечность
Оригинальное название: Infinite
Год выхода: 2021
Жанр: фантастика, боевик
Режиссер: Антуан Фукуа
В ролях: Марк Уолберг, Дилан О Брайен, Софи Куксон, Уоллис Дэй, Джейсон Манцукас, Чиветел Эджиофор, Руперт Френд, Лили Рич, Тоби Джонс, Лиз Карр
Описание: С самого детства Эван страдает от странных видений и реалистичных снов, знает вещи, которые никогда не запоминал, и имеет непонятно откуда взявшиеся навыки. С диагнозом «шизофрения» он влачит жалкое существование и зависит от таблеток. Пытаясь раздобыть очередную партю, Эван вздорит с дилером, устраивает заварушку и попадает в полицию. А там на него выходит загадочный мужчина, который утверждает, что знает его очень давно — ещё со Второй Пунической войны.

Страна: США
Продолжительность: 01:46:20
Перевод: Любительский (многоголосый, закадровый) Pazl Voice
Файл
Качество: WEB-DL 1080p | Infinite.2021.1080p.WEB.H264-NAISU
Видео: 1920x800 at 24.000 fps, MPEG4-AVC, ~7400 kbps avg
Аудио#1: Russian: 48 kHz, AC3, 3/2 (L,C,R,l,r) + LFE ch, ~448 kbps avg |Многоголосый закадровый, Pazl Voice|
Аудио#2: English: 48 kHz, E-AC3, 3/2 (L,C,R,l,r) + LFE ch, ~640 kbps avg
Субтитры: English
***Примечание: Без рекламы

MediaInfo

Общее
Уникальный идентификатор : 164047661801109304556930461112857526916 (0x7B6A6E2FCE15838826BF3D486D600284)
Полное имя : Infinite.2021.1080p.WEB.H264-NAISU.mkv
Формат : Matroska
Версия формата : Version 4
Размер файла : 6,35 Гбайт
Продолжительность : 1 ч. 46 м.
Общий поток : 8 547 Кбит/сек
Дата кодирования : UTC 2021-06-12 18:36:56
Программа кодирования : mkvmerge v57.0.0 ('Till The End') 64-bit
Библиотека кодирования : libebml v1.4.2 + libmatroska v1.6.4
Видео
Идентификатор : 1
Формат : AVC
Формат/Информация : Advanced Video Codec
Профиль формата : High@L4
Настройки формата : CABAC / 4 Ref Frames
Параметр CABAC формата : Да
Параметр RefFrames формата : 4 кадра
Идентификатор кодека : V_MPEG4/ISO/AVC
Продолжительность : 1 ч. 46 м.
Вид битрейта : Постоянный
Битрейт : 7 457 Кбит/сек
Номинальный битрейт : 10 000 Кбит/сек
Ширина : 1 920 пикселей
Высота : 800 пикселей
Соотношение сторон : 2,40:1
Режим частоты кадров : Постоянный
Частота кадров : 24,000 кадра/сек
Цветовое пространство : YUV
Субдискретизация насыщенности : 4:2:0
Битовая глубина : 8 бит
Тип развёртки : Прогрессивная
Бит/(Пиксели*Кадры) : 0.202
Размер потока : 5,54 Гбайт (87%)
Default : Да
Forced : Нет
Цветовой диапазон : Limited
Основные цвета : BT.709
Характеристики трансфера : BT.709
Коэффициенты матрицы : BT.709
Аудио #1
Идентификатор : 2
Формат : AC-3
Формат/Информация : Audio Coding 3
Коммерческое название : Dolby Digital
Идентификатор кодека : A_AC3
Продолжительность : 1 ч. 46 м.
Вид битрейта : Постоянный
Битрейт : 448 Кбит/сек
Каналы : 6 каналов
Channel layout : L R C LFE Ls Rs
Частота : 48,0 КГц
Частота кадров : 31,250 кадров/сек (1536 SPF)
Метод сжатия : С потерями
Размер потока : 341 Мбайт (5%)
Язык : Russian
Service kind : Complete Main
Default : Да
Forced : Нет
Аудио #2
Идентификатор : 3
Формат : E-AC-3
Формат/Информация : Enhanced AC-3
Коммерческое название : Dolby Digital Plus
Идентификатор кодека : A_EAC3
Продолжительность : 1 ч. 46 м.
Вид битрейта : Постоянный
Битрейт : 640 Кбит/сек
Каналы : 6 каналов
Channel layout : L R C LFE Ls Rs
Частота : 48,0 КГц
Частота кадров : 31,250 кадров/сек (1536 SPF)
Метод сжатия : С потерями
Размер потока : 487 Мбайт (7%)
Язык : English
Service kind : Complete Main
Default : Нет
Forced : Нет
Текст
Идентификатор : 4
Формат : UTF-8
Идентификатор кодека : S_TEXT/UTF8
Идентификатор кодека/Информация : UTF-8 Plain Text
Продолжительность : 1 ч. 40 м.
Битрейт : 47 бит/сек
Count of elements : 1128
Размер потока : 35,0 Кбайт (0%)
Язык : English
Default : Нет
Forced : Нет

Скриншоты

[Цитировать]



Показать сообщения:    

Текущее время: 03-Авг 09:33

Часовой пояс: UTC + 6


Вы не можете начинать темы
Вы не можете отвечать на сообщения
Вы не можете редактировать свои сообщения
Вы не можете удалять свои сообщения
Вы не можете голосовать в опросах
Вы не можете прикреплять файлы к сообщениям
Вы не можете скачивать файлы

!ВНИМАНИЕ!
Сайт не предоставляет электронные версии произведений, а занимается лишь коллекционированием и каталогизацией ссылок, присылаемых и публикуемых на форуме нашими читателями. Если вы являетесь правообладателем какого-либо представленного материала и не желаете, чтобы ссылка на него находилась в нашем каталоге, свяжитесь с нами, и мы незамедлительно удалим ее. Файлы для обмена на трекере предоставлены пользователями сайта, и администрация не несет ответственности за их содержание. Просьба не заливать файлы, защищенные авторскими правами, а также файлы нелегального содержания!