***Уважаемые пользователи и гости !!! Сайт переехал на новый домен Torrents-club.info. Просьба изменить ваши закладки! ***
 
[ Сегодня идет свободное скачивание без начисления Download ]


Статистика раздачи
Скачал: [ 1 ]
 
   
 
 
 
 
Информация о фильме
Название: Расплата
Оригинальное название: Payback: Straight Up
Год выхода: 2006
Жанр: Боевик, триллер, драма, криминал
Режиссер: Брайан Хелгеленд
В ролях: Мэл Гибсон, Грегг Генри, Мария Белло, Дэвид Пэймер, Джек Конли, Билл Дьюк, Уильям Дивэйн, Джон Гловер, Люси Лью, Дебора Кара Ангер, Марк Альфа
О фильме: Член преступного могущественного синдиката должен заплатить своим боссам 130 тыс. долларов. Поэтому он приглашает Портера на дело. Вместе с ним и его женой они грабят автомобиль, в котором азиаты перевозят «грязные» деньги. Но жене Портера подлый мафиози подсовывает фотографию мужа в объятиях проститутки, и супруга всаживает в благоверного пулю за пулей. Сочтя его мертвым, они забирают деньги и уезжают. Однако Портер не умер и через пять месяцев вернулся, чтобы расплатиться - вернуть свои деньги и отомстить.

Страна: США
Студия: Icon Entertainment International, Icon Productions
Продолжительность: 01:30:11
Перевод: Профессиональный (многоголосый, закадровый)
Файл
Формат: MKV
Качество: HDRip-AVC
Видео: MPEG-4 AVC, 772x322, 1078 Кбит/с
Аудио: AAC-HE, 2 ch, 76 Кбит/с
Субтитры: Русские, английские

MI

Общее
Уникальный идентификатор : 213758535178026352542550057812819211863 (0xA0D06578F2B5C0C0C97A0A0C86BC7657)
Полное имя : D:MOVIESRasplata.2006.HDRip-AVC.ExKinoRay.mkv
Формат : Matroska
Версия формата : Version 4
Размер файла : 745 Мбайт
Продолжительность : 1 ч. 30 м.
Общий поток : 1 155 Кбит/сек
Дата кодирования : UTC 2021-06-18 11:01:48
Программа кодирования : mkvmerge v45.0.0 ('Heaven in Pennies') 64-bit
Библиотека кодирования : libebml v1.3.10 + libmatroska v1.5.2
Видео
Идентификатор : 1
Формат : AVC
Формат/Информация : Advanced Video Codec
Профиль формата : High@L4.1
Настройки формата : CABAC / 13 Ref Frames
Параметр CABAC формата : Да
Параметр RefFrames формата : 13 кадров
Идентификатор кодека : V_MPEG4/ISO/AVC
Продолжительность : 1 ч. 30 м.
Битрейт : 1 078 Кбит/сек
Ширина : 772 пикселя
Высота : 322 пикселя
Соотношение сторон : 2,40:1
Режим частоты кадров : Постоянный
Частота кадров : 23,976 (24000/1001) кадра/сек
Цветовое пространство : YUV
Субдискретизация насыщенности : 4:2:0
Битовая глубина : 8 бит
Тип развёртки : Прогрессивная
Бит/(Пиксели*Кадры) : 0.181
Размер потока : 695 Мбайт (93%)
Библиотека кодирования : x264 core 161 r3053 c347e7a
Настройки программы : cabac=1 / ref=13 / deblock=1:-2:-2 / analyse=0x3:0x133 / me=umh / subme=10 / psy=1 / psy_rd=1.05:0.14 / mixed_ref=1 / me_range=32 / chroma_me=1 / trellis=2 / 8x8dct=1 / cqm=0 / deadzone=21,11 / fast_pskip=0 / chroma_qp_offset=-3 / threads=6 / lookahead_threads=1 / sliced_threads=0 / nr=0 / decimate=0 / interlaced=0 / bluray_compat=0 / constrained_intra=0 / bframes=12 / b_pyramid=2 / b_adapt=2 / b_bias=0 / direct=3 / weightb=1 / open_gop=0 / weightp=2 / keyint=240 / keyint_min=23 / scenecut=40 / intra_refresh=0 / rc=2pass / mbtree=0 / bitrate=1078 / ratetol=1.0 / qcomp=0.60 / qpmin=0 / qpmax=69 / qpstep=4 / cplxblur=20.0 / qblur=0.5 / ip_ratio=1.40 / pb_ratio=1.30 / aq=3:1.00
Default : Да
Forced : Нет
Цветовой диапазон : Limited
Основные цвета : BT.709
Характеристики трансфера : BT.709
Коэффициенты матрицы : BT.709
Аудио
Идентификатор : 2
Формат : AAC LC SBR
Формат/Информация : Advanced Audio Codec Low Complexity with Spectral Band Replication
Коммерческое название : HE-AAC
Настройки формата : Explicit
Идентификатор кодека : A_AAC-2
Продолжительность : 1 ч. 30 м.
Битрейт : 76,0 Кбит/сек
Каналы : 2 канала
Channel layout : L R
Частота : 48,0 КГц
Частота кадров : 23,438 кадра/сек (2048 SPF)
Метод сжатия : С потерями
Задержка видео : 31 мс.
Размер потока : 49,0 Мбайт (7%)
Язык : Russian
Default : Да
Forced : Нет
Текст #1
Идентификатор : 3
Формат : UTF-8
Идентификатор кодека : S_TEXT/UTF8
Идентификатор кодека/Информация : UTF-8 Plain Text
Продолжительность : 1 ч. 25 м.
Битрейт : 75 бит/сек
Count of elements : 948
Размер потока : 47,6 Кбайт (0%)
Язык : Russian
Default : Нет
Forced : Нет
Текст #2
Идентификатор : 4
Формат : UTF-8
Идентификатор кодека : S_TEXT/UTF8
Идентификатор кодека/Информация : UTF-8 Plain Text
Продолжительность : 1 ч. 25 м.
Битрейт : 47 бит/сек
Count of elements : 931
Размер потока : 29,7 Кбайт (0%)
Язык : English
Default : Нет
Forced : Нет
Меню
00:00:00.000 : en:00:00:00.000
00:06:28.513 : en:00:06:28.513
00:12:57.986 : en:00:12:57.986
00:21:47.890 : en:00:21:47.890
00:28:51.271 : en:00:28:51.271
00:33:51.279 : en:00:33:51.279
00:39:50.263 : en:00:39:50.263
00:43:22.350 : en:00:43:22.350
00:47:21.130 : en:00:47:21.130
00:53:39.716 : en:00:53:39.716
01:01:20.844 : en:01:01:20.844
01:09:08.186 : en:01:09:08.186
01:16:57.112 : en:01:16:57.112
01:24:47.749 : en:01:24:47.749

Скриншоты

[Цитировать]



Показать сообщения:    

Текущее время: 20-Сен 02:44

Часовой пояс: UTC + 6


Вы не можете начинать темы
Вы не можете отвечать на сообщения
Вы не можете редактировать свои сообщения
Вы не можете удалять свои сообщения
Вы не можете голосовать в опросах
Вы не можете прикреплять файлы к сообщениям
Вы не можете скачивать файлы

!ВНИМАНИЕ!
Сайт не предоставляет электронные версии произведений, а занимается лишь коллекционированием и каталогизацией ссылок, присылаемых и публикуемых на форуме нашими читателями. Если вы являетесь правообладателем какого-либо представленного материала и не желаете, чтобы ссылка на него находилась в нашем каталоге, свяжитесь с нами, и мы незамедлительно удалим ее. Файлы для обмена на трекере предоставлены пользователями сайта, и администрация не несет ответственности за их содержание. Просьба не заливать файлы, защищенные авторскими правами, а также файлы нелегального содержания!