***Уважаемые пользователи и гости !!! Сайт переехал на новый домен Torrents-club.info. Просьба изменить ваши закладки! ***
 
[ Сегодня идет свободное скачивание без начисления Download ]


Статистика раздачи
Скачал: [ 6 ]
 
   
 
 
 
 
Ледяной драйв / The Ice Road- Информация о фильме
Название: Ледяной драйв
Оригинальное название: The Ice Road
Год выхода: 2021
Жанр: боевик, триллер
Режиссер: Джонатан Хенсли
В ролях: Лиам Нисон, Маркус Томас, Лоуренс Фишборн, Эмбер Мидфандер, Бенджамин Уокер, Холт Маккэллани, Мэтт МакКой, Мартин Сенсмейер, Мэтт Сэлинджер, Чад Брюс
О фильме:
Север Канады. Ненадёжный апрельский лёд, вес грузовика — 33 тонны. Проехать по замерзшей поверхности озера возможно только на определенной скорости, а остановка или ускорение означают верную смерть. Но именно такая задача стоит перед колонной грузовиков — только они могут спасти людей, оказавшихся в обрушившейся алмазной шахте. Однако ни трескающийся под колёсами лёд, ни снежная буря не сравнятся с испытаниями, которые ждут водителей впереди.
Семпл
Страна: США
Студия: Code Entertainment, ShivHans Pictures, Envision Media Arts
Продолжительность: 01:49:15
Перевод: Дублированный (Line), Любительский двухголосый (Pazl Voice)
Файл
Качество: WEB-DL 1080p | D, L2 | Line
Видео: AVC/H.264, 1920x1080, ~5963 Кbps, 23,976 fps
Звук:
Аудио 1: AC3, 2 ch, 192 Kbps - Русский (DVO Pazl Voice)
Аудио 2: AC3, 2 ch, 192 Kbps - Русский (DUB Line)
Аудио 3: E-AC3, 6 ch, 640 Kbps - Английский
Субтитры: английские (Full, SDH)

Mediainfo

Общее
Уникальный идентификатор : 323554695103467426426411853833946690282 (0xF36A5E1AAF6E4A32F8B06EE00D6E72EA)
Полное имя : The Ice Road.2021.WEB-DL.1080p.W.mkv
Формат : Matroska
Версия формата : Version 4
Размер файла : 5,33 Гбайт
Продолжительность : 1 ч. 49 м.
Общий поток : 6 990 Кбит/сек
Название фильма : The Ice Road.2021.WEB-DL.1080p.W
Дата кодирования : UTC 2021-06-29 21:27:04
Программа кодирования : mkvmerge v23.0.0 ('The Bride Said No') 64-bit
Библиотека кодирования : libebml v1.3.6 + libmatroska v1.4.9
Видео
Идентификатор : 1
Формат : AVC
Формат/Информация : Advanced Video Codec
Профиль формата : High@L4
Настройки формата : CABAC / 4 Ref Frames
Параметр CABAC формата : Да
Параметр RefFrames формата : 4 кадра
Идентификатор кодека : V_MPEG4/ISO/AVC
Продолжительность : 1 ч. 49 м.
Вид битрейта : Постоянный
Битрейт : 5 963 Кбит/сек
Номинальный битрейт : 10 000 Кбит/сек
Ширина : 1 920 пикселей
Высота : 1 080 пикселей
Соотношение сторон : 16:9
Режим частоты кадров : Постоянный
Частота кадров : 23,976 (24000/1001) кадра/сек
Цветовое пространство : YUV
Субдискретизация насыщенности : 4:2:0
Битовая глубина : 8 бит
Тип развёртки : Прогрессивная
Бит/(Пиксели*Кадры) : 0.120
Размер потока : 4,55 Гбайт (85%)
Язык : English
Default : Да
Forced : Нет
Цветовой диапазон : Limited
Основные цвета : BT.709
Характеристики трансфера : BT.709
Коэффициенты матрицы : BT.709
Аудио #1
Идентификатор : 2
Формат : AC-3
Формат/Информация : Audio Coding 3
Коммерческое название : Dolby Digital
Идентификатор кодека : A_AC3
Продолжительность : 1 ч. 49 м.
Вид битрейта : Постоянный
Битрейт : 192 Кбит/сек
Каналы : 2 канала
Channel layout : L R
Частота : 48,0 КГц
Частота кадров : 31,250 кадров/сек (1536 SPF)
Метод сжатия : С потерями
Размер потока : 150 Мбайт (3%)
Заголовок : DVO_Pazl Voice
Язык : Russian
Service kind : Complete Main
Default : Да
Forced : Нет
Аудио #2
Идентификатор : 3
Формат : AC-3
Формат/Информация : Audio Coding 3
Коммерческое название : Dolby Digital
Идентификатор кодека : A_AC3
Продолжительность : 1 ч. 49 м.
Вид битрейта : Постоянный
Битрейт : 192 Кбит/сек
Каналы : 2 канала
Channel layout : L R
Частота : 48,0 КГц
Частота кадров : 31,250 кадров/сек (1536 SPF)
Метод сжатия : С потерями
Размер потока : 150 Мбайт (3%)
Заголовок : DUB_Line
Язык : Russian
Service kind : Complete Main
Default : Нет
Forced : Нет
Аудио #3
Идентификатор : 4
Формат : E-AC-3
Формат/Информация : Enhanced AC-3
Коммерческое название : Dolby Digital Plus
Идентификатор кодека : A_EAC3
Продолжительность : 1 ч. 49 м.
Вид битрейта : Постоянный
Битрейт : 640 Кбит/сек
Каналы : 6 каналов
Channel layout : L R C LFE Ls Rs
Частота : 48,0 КГц
Частота кадров : 31,250 кадров/сек (1536 SPF)
Метод сжатия : С потерями
Размер потока : 500 Мбайт (9%)
Язык : English
Service kind : Complete Main
Default : Нет
Forced : Нет
Текст #1
Идентификатор : 5
Формат : UTF-8
Идентификатор кодека : S_TEXT/UTF8
Идентификатор кодека/Информация : UTF-8 Plain Text
Продолжительность : 1 ч. 44 м.
Битрейт : 40 бит/сек
Count of elements : 1112
Размер потока : 31,1 Кбайт (0%)
Язык : English
Default : Нет
Forced : Нет
Текст #2
Идентификатор : 6
Формат : UTF-8
Идентификатор кодека : S_TEXT/UTF8
Идентификатор кодека/Информация : UTF-8 Plain Text
Продолжительность : 1 ч. 45 м.
Битрейт : 48 бит/сек
Count of elements : 1360
Размер потока : 37,3 Кбайт (0%)
Заголовок : SDH
Язык : English
Default : Нет
Forced : Нет
Меню
00:00:00.000 : en:Amazon Original
00:00:06.000 : en:Studio Logo
00:00:41.000 : en:Scene 3
00:03:34.000 : en:Scene 4
00:04:58.000 : en:Scene 5
00:06:20.000 : en:Scene 6
00:11:18.000 : en:Scene 7
00:14:10.000 : en:Scene 8
00:16:57.000 : en:Scene 9
00:17:29.000 : en:Scene 10
00:20:12.000 : en:Scene 11
00:22:25.000 : en:Scene 12
00:26:07.000 : en:Scene 13
00:26:50.000 : en:Scene 14
00:28:24.000 : en:Scene 15
00:39:11.000 : en:Scene 16
00:41:32.000 : en:Scene 17
00:46:28.000 : en:Scene 18
00:48:12.000 : en:Scene 19
00:48:42.000 : en:Scene 20
00:53:38.000 : en:Scene 21
01:02:10.000 : en:Scene 22
01:04:20.000 : en:Scene 23
01:05:54.000 : en:Scene 24
01:13:06.000 : en:Scene 25
01:17:33.000 : en:Scene 26
01:23:14.000 : en:Scene 27
01:25:02.000 : en:Scene 28
01:29:07.000 : en:Scene 29
01:35:58.000 : en:Scene 30
01:38:10.000 : en:Scene 31
01:41:46.000 : en:Scene 32
01:43:36.000 : en:End Credits

Скриншоты

[Цитировать]



Показать сообщения:    

Текущее время: 20-Сен 01:40

Часовой пояс: UTC + 6


Вы не можете начинать темы
Вы не можете отвечать на сообщения
Вы не можете редактировать свои сообщения
Вы не можете удалять свои сообщения
Вы не можете голосовать в опросах
Вы не можете прикреплять файлы к сообщениям
Вы не можете скачивать файлы

!ВНИМАНИЕ!
Сайт не предоставляет электронные версии произведений, а занимается лишь коллекционированием и каталогизацией ссылок, присылаемых и публикуемых на форуме нашими читателями. Если вы являетесь правообладателем какого-либо представленного материала и не желаете, чтобы ссылка на него находилась в нашем каталоге, свяжитесь с нами, и мы незамедлительно удалим ее. Файлы для обмена на трекере предоставлены пользователями сайта, и администрация не несет ответственности за их содержание. Просьба не заливать файлы, защищенные авторскими правами, а также файлы нелегального содержания!