***Уважаемые пользователи и гости !!! Сайт переехал на новый домен Torrents-club.info. Просьба изменить ваши закладки! ***
 
[ Сегодня идет свободное скачивание без начисления Download ]


Статистика раздачи
Скачал: [ 2 ]
 
   
 
 
 
 
Адам и шесть Ев / Adam and 6 Eves- Информация о фильме
Название: Адам и шесть Ев
Оригинальное название: Adam and 6 Eves
Год выхода: 1962
Жанр: Комедия, эротика
Режиссер: Джон Уоллис
В ролях: Рэнди Брент, Габриэль Бенетт, Марианн Беннетт, Шелли Форбс, Ли Сэндс, Лоррэйн Шелдон, Барбара Стэнли
О фильме:
Мужчину, который в поисках золота заблудился в пустыне, находят шесть обнаженных женщин.


Страна: США
Студия: Desert Productions
Продолжительность: 01:00:45
Перевод: Любительский одноголосый (NoNamed)
Файл
Кодек: XviD
Качество: HDRip
Видео: 640x384 (1.67:1), 23.976 fps, XviD build 73 ~1571 kbps avg, 0.27 bit/pixel
Звук: 48 kHz, MP3, 2 ch, ~128.00 kbps avg
Субтитры: Отсутствуют

MediaInfo:

General
Complete name : D:Адам и шесть Ев.HDRip by.ExKinoRay & Shkiper.avi
Format : AVI
Format/Info : Audio Video Interleave
File size : 742 MiB
Duration : 1 h 0 min
Overall bit rate : 1 708 kb/s
Writing application : VirtualDubMod 1.5.10.3 | www.virtualdub-fr.org || (build 2550/release)
Writing library : VirtualDubMod build 2550/release
Video
ID : 0
Format : MPEG-4 Visual
Format profile : Advanced Simple@L5
Format settings : BVOP1 / Custom Matrix
Format settings, BVOP : 1
Format settings, QPel : No
Format settings, GMC : No warppoints
Format settings, Matrix : Custom
Codec ID : XVID
Codec ID/Hint : XviD
Duration : 1 h 0 min
Bit rate : 1 571 kb/s
Width : 640 pixels
Height : 384 pixels
Display aspect ratio : 5:3
Frame rate : 23.976 (24000/1001) FPS
Color space : YUV
Chroma subsampling : 4:2:0
Bit depth : 8 bits
Scan type : Progressive
Compression mode : Lossy
Bits/(Pixel*Frame) : 0.267
Stream size : 682 MiB (92%)
Writing library : XviD 73
Audio
ID : 1
Format : MPEG Audio
Format version : Version 1
Format profile : Layer 3
Codec ID : 55
Codec ID/Hint : MP3
Duration : 1 h 0 min
Bit rate mode : Constant
Bit rate : 128 kb/s
Channel(s) : 2 channels
Sampling rate : 48.0 kHz
Frame rate : 41.667 FPS (1152 SPF)
Compression mode : Lossy
Stream size : 55.6 MiB (7%)
Alignment : Aligned on interleaves
Interleave, duration : 42 ms (1.00 video frame)
Interleave, preload duratio : 504 ms
Writing library : LAME3.99r
Encoding settings : -m s -V 4 -q 2 -lowpass 17 -b 128

Скриншоты

[Цитировать]



Показать сообщения:    

Текущее время: 20-Сен 03:13

Часовой пояс: UTC + 6


Вы не можете начинать темы
Вы не можете отвечать на сообщения
Вы не можете редактировать свои сообщения
Вы не можете удалять свои сообщения
Вы не можете голосовать в опросах
Вы не можете прикреплять файлы к сообщениям
Вы не можете скачивать файлы

!ВНИМАНИЕ!
Сайт не предоставляет электронные версии произведений, а занимается лишь коллекционированием и каталогизацией ссылок, присылаемых и публикуемых на форуме нашими читателями. Если вы являетесь правообладателем какого-либо представленного материала и не желаете, чтобы ссылка на него находилась в нашем каталоге, свяжитесь с нами, и мы незамедлительно удалим ее. Файлы для обмена на трекере предоставлены пользователями сайта, и администрация не несет ответственности за их содержание. Просьба не заливать файлы, защищенные авторскими правами, а также файлы нелегального содержания!