***Уважаемые пользователи и гости !!! Сайт переехал на новый домен Torrents-club.info. Просьба изменить ваши закладки! ***
 
[ Сегодня идет свободное скачивание без начисления Download ]


Статистика раздачи
Скачал: [ 1 ]
 
   
 
 
 
 
Папа закодировался- Информация о фильме
Название: Папа закодировался
Год выхода: 2020
Жанр: комедия
Режиссёр: Павел Ходнев
В ролях: Евгений Сытый, Алла Юганова, Фёдор Семчев, Александр Новиков, Александр Булатов, Николай Шрайбер, Дмитрий Куличков, Александр Головин, Иван Макаревич, Игорь Гудеев, Дарья Мингазетдинова, Александр Ревенко, Илья Щербинин, Павел Кабанов, Сергей Аброскин, Василий Бабаев, Андрей Капустин, Олеся Репина, Юлия Полынская
О фильме:
После кодирования от алкоголизма Анатолий Снаров взглянул на свою жизнь новыми, трезвыми глазами. Оказывается, у него есть жена, дети и ответственная должность начальника ЖКХ в уездном городке Сорочинске, которыми он совершенно не занимался раньше. Достигнув просветления, Снаров решает осчастливить окружающих. Он становится примерным семьянином и активным гражданином. Его бурная деятельность быстро выходит за рамки полномочий начальника ЖКХ. В надежде спастись от деятельного реформатора, окружение Снарова бросает все силы на то, чтобы его раскодировать…

Страна: Россия
Студия: Кинокомпания «АРТЛАЙТ» при финансовой поддержке Министерства культуры РФ
Продолжительность: 01:32:29
Перевод: Не требуется
Субтитры: Отсутствуют
Файл
Формат: Matroska
Качество: WEB-DLRip 720p
Видео: 1274x568 at 24.000 fps, x264@L4.1, ~2133 kbps
Аудио: AC3, 6 ch, ~384 kbps - | Русский | -
► Без Рекламы!

M/I

x264 [info]: frame I:1154 Avg QP:17.27 size: 63003
x264 [info]: frame P:27538 Avg QP:18.79 size: 23692
x264 [info]: frame B:104496 Avg QP:20.76 size: 7217
General
Format : Matroska
Format version : Version 4
File size : 1.63 GiB
Duration : 1 h 32 min
Overall bit rate : 2 519 kb/s
Movie name : Папа закодировался.(2020).WEB-DLRip.x264.720p.[-=DoMiNo=-]
Encoded date : UTC 2021-07-15 09:04:48
Writing application : mkvmerge v59.0.0 ('Shining Star') 64-bit
Writing library : libebml v1.4.2 + libmatroska v1.6.4
Cover : Yes
Attachments : Cover.png / Cover 2.jpg
Video
ID : 1
Format : AVC
Format/Info : Advanced Video Codec
Format profile : High@L4.1
Format settings : CABAC / 11 Ref Frames
Format settings, CABAC : Yes
Format settings, Reference : 11 frames
Codec ID : V_MPEG4/ISO/AVC
Duration : 1 h 32 min
Bit rate : 2 133 kb/s
Width : 1 274 pixels
Height : 568 pixels
Display aspect ratio : 2.25:1
Frame rate mode : Constant
Frame rate : 24.000 FPS
Color space : YUV
Chroma subsampling : 4:2:0
Bit depth : 8 bits
Scan type : Progressive
Bits/(Pixel*Frame) : 0.123
Stream size : 1.38 GiB (85%)
Title : -=DoMiNo=-
Writing library : x264 core 164 r3065+55M 280faca t_mod_New [(8 & 10)-bit@all X86_64]
Encoding settings : cabac=1 / ref=11 / deblock=1:-3:-3 / analyse=0x3:0x133 / me=umh / subme=10 / psy=1 / fade_compensate=0.00 / psy_rd=1.03:0.05 / mixed_ref=1 / me_range=32 / chroma_me=1 / trellis=2 / 8x8dct=1 / cqm=0 / deadzone=21,11 / fast_pskip=0 / chroma_qp_offset=-3 / threads=24 / lookahead_threads=4 / sliced_threads=0 / nr=0 / decimate=1 / interlaced=0 / bluray_compat=0 / constrained_intra=0 / fgo=0 / bframes=9 / b_pyramid=2 / b_adapt=2 / b_bias=0 / direct=1 / weightb=1 / open_gop=0 / weightp=2 / keyint=240 / keyint_min=24 / scenecut=40 / intra_refresh=0 / rc_lookahead=60 / rc=crf / mbtree=0 / crf=20.0000 / qcomp=0.65 / qpmin=0:0:0 / qpmax=69:69:69 / qpstep=4 / vbv_maxrate=50000 / vbv_bufsize=62500 / crf_max=0.0 / nal_hrd=none / filler=0 / ip_ratio=1.30 / pb_ratio=1.20 / aq=3:0.80 / aq-sensitivity=10.00 / aq-factor=1.00:1.00:1.00 / aq2=0 / aq3=0
Language : Russian
Default : Yes
Forced : No
Color range : Limited
Color primaries : BT.709
Transfer characteristics : BT.709
Matrix coefficients : BT.709
Audio
ID : 2
Format : AC-3
Format/Info : Audio Coding 3
Commercial name : Dolby Digital
Codec ID : A_AC3
Duration : 1 h 32 min
Bit rate mode : Constant
Bit rate : 384 kb/s
Channel(s) : 6 channels
Channel layout : L R C LFE Ls Rs
Sampling rate : 48.0 kHz
Frame rate : 31.250 FPS (1536 SPF)
Compression mode : Lossy
Stream size : 254 MiB (15%)
Language : Russian
Service kind : Complete Main
Default : Yes
Forced : Yes

Скриншоты

[Цитировать]



Показать сообщения:    

Текущее время: 19-Окт 08:52

Часовой пояс: UTC + 6


Вы не можете начинать темы
Вы не можете отвечать на сообщения
Вы не можете редактировать свои сообщения
Вы не можете удалять свои сообщения
Вы не можете голосовать в опросах
Вы не можете прикреплять файлы к сообщениям
Вы не можете скачивать файлы

!ВНИМАНИЕ!
Сайт не предоставляет электронные версии произведений, а занимается лишь коллекционированием и каталогизацией ссылок, присылаемых и публикуемых на форуме нашими читателями. Если вы являетесь правообладателем какого-либо представленного материала и не желаете, чтобы ссылка на него находилась в нашем каталоге, свяжитесь с нами, и мы незамедлительно удалим ее. Файлы для обмена на трекере предоставлены пользователями сайта, и администрация не несет ответственности за их содержание. Просьба не заливать файлы, защищенные авторскими правами, а также файлы нелегального содержания!