***Уважаемые пользователи и гости !!! Сайт переехал на новый домен Torrents-club.info. Просьба изменить ваши закладки! ***
 
[ Сегодня идет свободное скачивание без начисления Download ]


Статистика раздачи
Скачал: [ 4 ]
 
   
 
 
 
 
Райское озеро / Eden Lake- Информация о фильме
Название: Райское озеро
Оригинальное название: Eden Lake
Год выхода: 2008
Жанр: Ужасы, триллер
Режиссер: Джеймс Уоткинс
В ролях: Келли Райлли, Майкл Фассбендер, Джек О`Коннелл, Томас Тургус, Финн Аткинс, Джеймс Берроуз, Том Гилл, Джумэйн Хантер, Шон Дули, Тара Эллис
О фильме:
Молодая парочка едет за город, чтобы провести романтический уикенд на берегу Райского озера вдали от людей, в диком лесу. Стив и Дженни планируют пожениться, прожить долго и умереть в один день. Никто из них не думал, что страшная смерть уже близко, и этот день наступит завтра… Шайка тупых и агрессивных подростков, шарившая по лесу в поисках приключений, натыкается на лагерь «молодоженов». Чтобы повеселиться и позлить «взрослых», они крадут их вещи, ломают автомобиль и в конце концов нападают на Стива. Войдя в раж кровавой расправы, они уже не могут остановиться. Дженни спасается бегством, но не в силах оторваться от преследователей, затеявших с ней жестокую игру в кошки-мышки. Сумеет ли она невероятными усилиями вырваться из этого ада и избежать ужасной судьбы Стива?
Страна: Великобритания
Студия: Rollercoaster Films
Продолжительность: 01:30:57
Перевод: Дублированный (Лицензия)
Файл
Качество: BDRip-HEVC 1080p
Видео: HEVC/x.265, 1920x816, ~8688 Kbps
Аудио 1: AC3, 6 ch, 448 Kbps Дублированный
Аудио 2: AC3, 6 ch, 448 Kbps (Оригинал)
Субтитры: Английские, Русские

Mediainfo

General
Unique ID : 310117153673578079929585839129087460824 (0xE94E642924DFBB9A13B42E2D500C45D8)
Complete name : H:HEVC-CLUBEden Lake (2008) BDRip 1080p [HEVC] 10bit.mkv
Format : Matroska
Format version : Version 4
File size : 6.21 GiB
Duration : 1 h 30 min
Overall bit rate : 9 778 kb/s
Movie name : Райское озеро
Writing application : XviD4PSP 7.0.479 DAILY
Writing library : Lavf57.71.100
ErrorDetectionType : Per level 1
Attachments : poster.jpg
ACTORS : Келли Райлли, Майкл Фассбендер,
COUNTRY : Великобритания
DATE : 2008
DIRECTOR : Джеймс Уоткинс
ENCODING_INFO : MATROSKA,WEBM > MKV 1080p 10-bit / H264 > X265 CRF 17.5 Medium / AC3 > AC3 CBR 448kbps / DTS-HD MA > AC3 CBR 448kbps
GENRE : ужасы, триллер
HD_VIDEO : 1
Language : und
MEDIA_TYPE : 9
ORIGINAL_TITLE : Eden Lake
Video
ID : 1
Format : HEVC
Format/Info : High Efficiency Video Coding
Format profile : Main 10@L4.1@High
Codec ID : V_MPEGH/ISO/HEVC
Duration : 1 h 30 min
Bit rate : 8 688 kb/s
Width : 1 920 pixels
Height : 816 pixels
Display aspect ratio : 2.35:1
Frame rate mode : Constant
Frame rate : 24.000 FPS
Color space : YUV
Chroma subsampling : 4:2:0
Bit depth : 10 bits
Bits/(Pixel*Frame) : 0.231
Stream size : 5.52 GiB (89%)
Writing library : x265 2.9+9-f74003e88622:[Windows][GCC 8.2.0][64 bit] 10bit
Encoding settings : cpuid=1111039 / frame-threads=7 / numa-pools=6 / wpp / no-pmode / no-pme / no-psnr / no-ssim / log-level=3 / input-csp=1 / input-res=1920x816 / interlace=0 / total-frames=0 / level-idc=41 / high-tier=1 / uhd-bd=0 / ref=5 / allow-non-conformance / no-repeat-headers / annexb / no-aud / no-hrd / info / hash=0 / no-temporal-layers / open-gop / min-keyint=24 / keyint=240 / gop-lookahead=0 / bframes=9 / b-adapt=2 / b-pyramid / bframe-bias=0 / rc-lookahead=20 / lookahead-slices=5 / scenecut=40 / radl=0 / no-intra-refresh / ctu=64 / min-cu-size=8 / rect / amp / max-tu-size=32 / tu-inter-depth=1 / tu-intra-depth=1 / limit-tu=0 / rdoq-level=0 / dynamic-rd=0.00 / no-ssim-rd / signhide / no-tskip / nr-intra=0 / nr-inter=0 / no-constrained-intra / no-strong-intra-smoothing / max-merge=2 / limit-refs=3 / no-limit-modes / me=3 / subme=7 / merange=57 / temporal-mvp / weightp / no-weightb / no-analyze-src-pics / deblock=-3:-3 / no-sao / no-sao-non-deblock / rd=3 / no-early-skip / rskip / no-fast-intra / no-tskip-fast / no-cu-lossless / no-b-intra / no-splitrd-skip / rdpenalty=0 / psy-rd=2.00 / psy-rdoq=0.00 / no-rd-refine / no-lossless / cbqpoffs=0 / crqpoffs=0 / rc=crf / crf=17.5 / qcomp=0.70 / qpstep=4 / stats-write=0 / stats-read=0 / vbv-maxrate=50000 / vbv-bufsize=50000 / vbv-init=0.9 / crf-max=30.0 / crf-min=0.0 / ipratio=1.40 / pbratio=1.30 / aq-mode=1 / aq-strength=1.00 / cutree / zone-count=0 / no-strict-cbr / qg-size=32 / no-rc-grain / qpmax=69 / qpmin=0 / no-const-vbv / sar=1 / overscan=0 / videoformat=5 / range=0 / colorprim=1 / transfer=1 / colormatrix=1 / chromaloc=0 / display-window=0 / max-cll=0,0 / min-luma=0 / max-luma=1023 / log2-max-poc-lsb=8 / vui-timing-info / vui-hrd-info / slices=1 / no-opt-qp-pps / no-opt-ref-list-length-pps / no-multi-pass-opt-rps / scenecut-bias=0.05 / no-opt-cu-delta-qp / no-aq-motion / no-hdr / no-hdr-opt / no-dhdr10-opt / no-idr-recovery-sei / analysis-reuse-level=5 / scale-factor=0 / refine-intra=0 / refine-inter=0 / refine-mv=0 / no-limit-sao / ctu-info=0 / no-lowpass-dct / refine-mv-type=0 / copy-pic=1 / max-ausize-factor=1.0 / no-dynamic-refine / no-single-sei
Default : Yes
Forced : No
Color range : Limited
Color primaries : BT.709
Transfer characteristics : BT.709
Matrix coefficients : BT.709
Audio #1
ID : 2
Format : AC-3
Format/Info : Audio Coding 3
Commercial name : Dolby Digital
Codec ID : A_AC3
Duration : 1 h 30 min
Bit rate mode : Constant
Bit rate : 448 kb/s
Channel(s) : 6 channels
Channel layout : L R C LFE Ls Rs
Sampling rate : 48.0 kHz
Frame rate : 31.250 FPS (1536 SPF)
Bit depth : 16 bits
Compression mode : Lossy
Stream size : 291 MiB (5%)
Title : Русский AC3 384 kbps - дубляж
Language : Russian
Service kind : Complete Main
Default : Yes
Forced : No
Audio #2
ID : 3
Format : AC-3
Format/Info : Audio Coding 3
Commercial name : Dolby Digital
Codec ID : A_AC3
Duration : 1 h 30 min
Bit rate mode : Constant
Bit rate : 448 kb/s
Channel(s) : 6 channels
Channel layout : L R C LFE Ls Rs
Sampling rate : 48.0 kHz
Frame rate : 31.250 FPS (1536 SPF)
Bit depth : 16 bits
Compression mode : Lossy
Stream size : 291 MiB (5%)
Title : DTS-HD ~2062 kbps - оригинал
Language : English
Service kind : Complete Main
Default : No
Forced : No
Text #1
ID : 4
Format : UTF-8
Codec ID : S_TEXT/UTF8
Codec ID/Info : UTF-8 Plain Text
Title : английские
Language : English
Default : Yes
Forced : No
Text #2
ID : 5
Format : UTF-8
Codec ID : S_TEXT/UTF8
Codec ID/Info : UTF-8 Plain Text
Title : английские
Language : English
Default : No
Forced : No
Text #3
ID : 6
Format : UTF-8
Codec ID : S_TEXT/UTF8
Codec ID/Info : UTF-8 Plain Text
Title : русские
Language : Russian
Default : No
Forced : No
Menu
00:00:00.000 : :Chapter 1
00:06:49.000 : :Chapter 2
00:20:38.416 : :Chapter 3
00:26:03.416 : :Chapter 4
00:36:19.000 : :Chapter 5
00:47:31.083 : :Chapter 6
00:56:03.541 : :Chapter 7
01:02:51.000 : :Chapter 8
01:06:56.458 : :Chapter 9
01:12:45.000 : :Chapter 10
01:20:52.207 : :Chapter 11
01:26:29.416 : :Chapter 12

Скриншоты

[Цитировать]



Показать сообщения:    

Текущее время: 19-Окт 08:14

Часовой пояс: UTC + 6


Вы не можете начинать темы
Вы не можете отвечать на сообщения
Вы не можете редактировать свои сообщения
Вы не можете удалять свои сообщения
Вы не можете голосовать в опросах
Вы не можете прикреплять файлы к сообщениям
Вы не можете скачивать файлы

!ВНИМАНИЕ!
Сайт не предоставляет электронные версии произведений, а занимается лишь коллекционированием и каталогизацией ссылок, присылаемых и публикуемых на форуме нашими читателями. Если вы являетесь правообладателем какого-либо представленного материала и не желаете, чтобы ссылка на него находилась в нашем каталоге, свяжитесь с нами, и мы незамедлительно удалим ее. Файлы для обмена на трекере предоставлены пользователями сайта, и администрация не несет ответственности за их содержание. Просьба не заливать файлы, защищенные авторскими правами, а также файлы нелегального содержания!