***Уважаемые пользователи и гости !!! Сайт переехал на новый домен Torrents-club.info. Просьба изменить ваши закладки! ***
 
[ Сегодня идет свободное скачивание без начисления Download ]


Статистика раздачи
Скачал: [ 4 ]
 
   
 
 
 
 
Круиз по джунглям / Jungle Cruise Год выпуска: 2021
Выпущено: США, Walt Disney Pictures, Davis Entertainment, 7 Bucks Productions, TSG Entertainment, Zaftig Films, Flynn Picture Company
Жанр: приключения, комедия, фэнтези
Продолжительность:
Перевод: Любительский двухголосый (Pazl Voice)
Режиссер: Жауме Кольет-Серра
В ролях: Дуэйн Джонсон, Эмили Блант, Эдгар Рамирес, Джек Уайтхолл, Джесси Племонс, Пол Джаматти, Вероника Фалькон, Дани Ровира, Ким Гутьеррес, Дэн Дарган Картер, Энди Найман, Рафаэль Алехандро, Симона Локхарт, Педро Лопес, Сулем Кальдерон, Себастьян Блант, Марк Эшворт, Аллан Попплтон, Кэролайн Пейдж, Джеймс Кватрочи
О фильме: Отважная исследовательница дикой природы Лили Хоутон намерена отправиться в верховья Амазонки, чтобы найти легендарное дерево, которое – согласно преданиям южноамериканских индейских племен – обладает магическими целебными свойствами. Сопровождать Лили будут её утонченный брат Макгрегор и бесшабашный капитан круизного пароходика Фрэнк. В дебрях джунглей путников будут подстерегать не только смертельно опасные представители амазонской флоры и фауны, но и ловушки, подстроенные участниками конкурирующей экспедиции, и даже встречи со сверхъестественным.

Качество: WEB-DL 1080p
Видео: MPEG-4 AVC, 6762 Kбит/с, 1920x1080
Аудио 1: AC3, 6 ch, 448 Кбит/с | Tnx.KinoPub
Аудио 2: E-AC3 JOC, 6 ch, 768 Кбит/с
Субтитры: Английские

Инфо

Общее
Уникальный идентификатор : 328903537168678942767138961224180540288 (0xF7708460FAFD5A80BF086551E031A380)
Полное имя : E:TorrentsJungle.Cruise.2021.1080p.WEB-DL.JNS82..mkv
Формат : Matroska
Версия формата : Version 4
Размер файла : 7,10 Гбайт
Продолжительность : 2 ч. 7 м.
Режим общего битрейта : Переменный
Общий поток : 7 981 Кбит/сек
Название фильма : Jungle.Cruise.2021.1080p.WEB-DL.JNS82.
Дата кодирования : UTC 2021-08-01 16:07:04
Программа кодирования : mkvmerge v59.0.0 ('Shining Star') 64-bit
Библиотека кодирования : libebml v1.4.2 + libmatroska v1.6.4
Видео
Идентификатор : 1
Формат : AVC
Формат/Информация : Advanced Video Codec
Профиль формата : High@L4
Настройки формата : CABAC / 4 Ref Frames
Параметр CABAC формата : Да
Параметр RefFrames формата : 4 кадра
Идентификатор кодека : V_MPEG4/ISO/AVC
Продолжительность : 2 ч. 7 м.
Вид битрейта : Переменный
Битрейт : 6 762 Кбит/сек
Максимальный битрейт : 12,7 Мбит/сек
Ширина : 1 920 пикселей
Высота : 1 080 пикселей
Соотношение сторон : 16:9
Режим частоты кадров : Постоянный
Частота кадров : 23,976 (24000/1001) кадра/сек
Цветовое пространство : YUV
Субдискретизация насыщенности : 4:2:0
Битовая глубина : 8 бит
Тип развёртки : Прогрессивная
Бит/(Пиксели*Кадры) : 0.136
Размер потока : 6,01 Гбайт (85%)
Default : Да
Forced : Нет
Цветовой диапазон : Limited
Основные цвета : BT.709
Характеристики трансфера : BT.709
Коэффициенты матрицы : BT.709
Аудио #1
Идентификатор : 2
Формат : AC-3
Формат/Информация : Audio Coding 3
Коммерческое название : Dolby Digital
Идентификатор кодека : A_AC3
Продолжительность : 2 ч. 7 м.
Вид битрейта : Постоянный
Битрейт : 448 Кбит/сек
Каналы : 6 каналов
Channel layout : L R C LFE Ls Rs
Частота : 48,0 КГц
Частота кадров : 31,250 кадров/сек (1536 SPF)
Метод сжатия : С потерями
Размер потока : 408 Мбайт (6%)
Заголовок : [DVO] Pazl Voice | KinoPub
Язык : Russian
Service kind : Complete Main
Default : Да
Forced : Нет
Аудио #2
Идентификатор : 3
Формат : E-AC-3 JOC
Формат/Информация : Enhanced AC-3 with Joint Object Coding
Коммерческое название : Dolby Digital Plus with Dolby Atmos
Идентификатор кодека : A_EAC3
Продолжительность : 2 ч. 7 м.
Вид битрейта : Постоянный
Битрейт : 768 Кбит/сек
Каналы : 6 каналов
Channel layout : L R C LFE Ls Rs
Частота : 48,0 КГц
Частота кадров : 31,250 кадров/сек (1536 SPF)
Метод сжатия : С потерями
Размер потока : 699 Мбайт (10%)
Заголовок : English
Язык : English
Service kind : Complete Main
Default : Нет
Forced : Нет
Complexity index : 16
Number of dynamic objects : 15
Bed channel count : 1 канал
Bed channel configuration : LFE
Текст
Идентификатор : 4
Формат : UTF-8
Идентификатор кодека : S_TEXT/UTF8
Идентификатор кодека/Информация : UTF-8 Plain Text
Продолжительность : 2 ч. 6 м.
Битрейт : 55 бит/сек
Count of elements : 1643
Размер потока : 51,1 Кбайт (0%)
Заголовок : English
Язык : English
Default : Нет
Forced : Нет

Скриншоты


[Цитировать]



Показать сообщения:    

Текущее время: 08-Дек 04:21

Часовой пояс: UTC + 6


Вы не можете начинать темы
Вы не можете отвечать на сообщения
Вы не можете редактировать свои сообщения
Вы не можете удалять свои сообщения
Вы не можете голосовать в опросах
Вы не можете прикреплять файлы к сообщениям
Вы не можете скачивать файлы

!ВНИМАНИЕ!
Сайт не предоставляет электронные версии произведений, а занимается лишь коллекционированием и каталогизацией ссылок, присылаемых и публикуемых на форуме нашими читателями. Если вы являетесь правообладателем какого-либо представленного материала и не желаете, чтобы ссылка на него находилась в нашем каталоге, свяжитесь с нами, и мы незамедлительно удалим ее. Файлы для обмена на трекере предоставлены пользователями сайта, и администрация не несет ответственности за их содержание. Просьба не заливать файлы, защищенные авторскими правами, а также файлы нелегального содержания!