***Уважаемые пользователи и гости !!! Сайт переехал на новый домен Torrents-club.info. Просьба изменить ваши закладки! ***
 
[ Сегодня идет свободное скачивание без начисления Download ]


Статистика раздачи
Скачал: [ 6 ]
 
   
 
 
 
 
Бегущая в лабиринте / Meander- Информация о фильме
Название: Бегущая в лабиринте
Оригинальное название: Meander
Год выхода: 2020
Жанр: Фантастика, триллер
Режиссер: Матьё Тури
В ролях: Гайя Уайсс, Петер Францен, Роман Либер, Фредерик Франкитти, Корнелиу Драгомиреску, Эва Нивдански, Карл Лафоре, Фабьен Уссе

О фильме: Главная героиня Лиза попадает в лабиринт из металлических труб, которые нашпигованы смертельными ловушками. На ее руке часы с обратным отсчетом, которые предупреждают о надвигающейся опасности и не дают останавливаться. Чтобы не погибнуть страшной смертью, Лизе необходимо все время ползти в узких и скользких трубах. Она узнает, что есть еще один человек, который тоже оказался внутри ловушки. Но выбраться из лабиринта живым сможет только кто-то один.
«Бегущая в лабиринте» — клаустрофобный триллер о героине, оказавшейся внутри смертельной головоломки.

Страна: Франция
Студия: Alba Films, Cinéaxe, Cinéfrance Studios, Equitime, Fulltime Studio, OCS, SG Image 2018, WTF, Ynnis Interactive
Продолжительность: 01:45:22
Перевод: Дублированный | iTunes
Качество: WEB-DL 1080p
Видео: MPEG-4 AVC, 1912x796, 6797 Kbit/s, 23.976 fps
Аудио #01: 48 kHz, AC3, 5.1, 384 Kbps | iTunes | RUS |
Аудио #02: 48 kHz, AC3, 5.1, 384 Kbps | Оригинал | FRE |
Субтитры: Английские

Скриншоты:

MI

General
Unique ID : 235379495377143771486414095145123729971 (0xB114711CB2E854AC18168332C7085233)
Complete name : F:VideoMeander.2020.WEB-DL.1080p.seleZen.mkv
Format : Matroska
Format version : Version 4
File size : 4.80 GiB
Duration : 1 h 30 min
Overall bit rate : 7 567 kb/s
Movie name : Meander 2020 from seleZen
Encoded date : UTC 2021-08-02 21:38:54
Writing application : mkvmerge v59.0.0 ('Shining Star') 64-bit
Writing library : libebml v1.4.2 + libmatroska v1.6.4
Video
ID : 1
Format : AVC
Format/Info : Advanced Video Codec
Format profile : High@L4
Format settings : CABAC / 5 Ref Frames
Format settings, CABAC : Yes
Format settings, Reference : 5 frames
Codec ID : V_MPEG4/ISO/AVC
Duration : 1 h 30 min
Bit rate : 6 797 kb/s
Width : 1 912 pixels
Height : 796 pixels
Display aspect ratio : 2.40:1
Frame rate mode : Constant
Frame rate : 23.976 (24000/1001) FPS
Color space : YUV
Chroma subsampling : 4:2:0
Bit depth : 8 bits
Scan type : Progressive
Bits/(Pixel*Frame) : 0.186
Stream size : 4.31 GiB (90%)
Language : French
Default : Yes
Forced : No
Color range : Limited
Color primaries : BT.709
Transfer characteristics : BT.709
Matrix coefficients : BT.709
Audio #1
ID : 2
Format : AC-3
Format/Info : Audio Coding 3
Commercial name : Dolby Digital
Codec ID : A_AC3
Duration : 1 h 30 min
Bit rate mode : Constant
Bit rate : 384 kb/s
Channel(s) : 6 channels
Channel layout : L R C LFE Ls Rs
Sampling rate : 48.0 kHz
Frame rate : 31.250 FPS (1536 SPF)
Compression mode : Lossy
Stream size : 249 MiB (5%)
Title : iTunes
Language : Russian
Service kind : Complete Main
Default : Yes
Forced : Yes
Audio #2
ID : 3
Format : AC-3
Format/Info : Audio Coding 3
Commercial name : Dolby Digital
Codec ID : A_AC3
Duration : 1 h 30 min
Bit rate mode : Constant
Bit rate : 384 kb/s
Channel(s) : 6 channels
Channel layout : L R C LFE Ls Rs
Sampling rate : 48.0 kHz
Frame rate : 31.250 FPS (1536 SPF)
Compression mode : Lossy
Stream size : 249 MiB (5%)
Title : Original
Language : French
Service kind : Complete Main
Default : No
Forced : No
Text
ID : 4
Format : UTF-8
Codec ID : S_TEXT/UTF8
Codec ID/Info : UTF-8 Plain Text
Duration : 1 h 19 min
Bit rate : 2 b/s
Count of elements : 86
Stream size : 1.71 KiB (0%)
Title : Full
Language : English
Default : No
Forced : No
Menu
00:00:00.000 : Scene 1
00:06:22.000 : Scene 2
00:14:52.000 : Scene 3
00:22:20.000 : Scene 4
00:30:44.000 : Scene 5
00:39:37.000 : Scene 6
00:48:27.000 : Scene 7
00:58:45.000 : Scene 8
01:08:01.000 : Scene 9
01:18:22.000 : Scene 10
01:26:44.000 : Scene 11

[Цитировать]



Показать сообщения:    

Текущее время: 08-Дек 03:08

Часовой пояс: UTC + 6


Вы не можете начинать темы
Вы не можете отвечать на сообщения
Вы не можете редактировать свои сообщения
Вы не можете удалять свои сообщения
Вы не можете голосовать в опросах
Вы не можете прикреплять файлы к сообщениям
Вы не можете скачивать файлы

!ВНИМАНИЕ!
Сайт не предоставляет электронные версии произведений, а занимается лишь коллекционированием и каталогизацией ссылок, присылаемых и публикуемых на форуме нашими читателями. Если вы являетесь правообладателем какого-либо представленного материала и не желаете, чтобы ссылка на него находилась в нашем каталоге, свяжитесь с нами, и мы незамедлительно удалим ее. Файлы для обмена на трекере предоставлены пользователями сайта, и администрация не несет ответственности за их содержание. Просьба не заливать файлы, защищенные авторскими правами, а также файлы нелегального содержания!