***Уважаемые пользователи и гости !!! Сайт переехал на новый домен Torrents-club.info. Просьба изменить ваши закладки! ***
 
[ Сегодня идет свободное скачивание без начисления Download ]


Статистика раздачи
Скачал: [ 2 ]
 
   
 
 
 
 
Повелители улиц / Run with the Hunted
- Производство: США / Roxwell Films, BondIt Media Capital, El Ride Productions
Жанр: Триллер, драма, криминал
Режиссер: Джон Своб
Актеры: Рон Перлман, Марк Бун Джуниор, Майкл Питт, Уильям Форсайт, Кайли Роджерс, Исайя Уитлок мл., Дри Хемингуэй, Брэд Картер, Слэйн, Гор Абрамс
Описание:
Оскар — мальчик, совершивший убийство, чтобы спасти свою лучшую подругу Лоукс, и вынужденный бежать. В ближайшем городе его принимают в банду уличных детей-воров. Спустя 15 лет он сам становится лидером этой группировки. Когда Лоукс переезжает в поисках работы и устраивается детективом, она находит сообщение о пропавшем Оскаре. Она хочет найти мальчика, который спас ей жизнь, и их пути пересекаются самым неожиданным образом.

Возраст: 16+ (зрителям, достигшим 16 лет)
Дата мировой премьеры: 3 октября 2019
Цифровой релиз: 2 августа 2021
Релиз от: LORDKILL
Продолжительность: 01:32:55
Качество видео: BDRip 1080p
Перевод: Дублированный (iTunes)
Субтитры: Английские
Видео: AVC/H.264, 1920x720, 5500 kbps
Аудио: AC3, 6 ch, 384 kbps - Русский

MediaInfo:

x264 [info]: frame I:904 Avg QP:19.01 size:137968
x264 [info]: frame P:26492 Avg QP:21.32 size: 49921
x264 [info]: frame B:105434 Avg QP:22.96 size: 22394
x264 [info]: consecutive B-frames: 1.7% 2.2% 7.0% 14.3% 6.4% 47.5% 12.1% 2.0% 3.5% 1.8% 1.4%
General
Unique ID : 101877175746268254892043343043580835016 (0x4CA4D49149FAA121E0EE80873B4EB4C8)
Complete name : E:\КИНО\РУТОР\Повелители улиц (2019).mkv
Format : Matroska
Format version : Version 4
File size : 3.80 GiB
Duration : 1 h 32 min
Overall bit rate : 5 885 kb/s
Movie name : Повелители улиц / Run with the Hunted (2019) - #LORDKILL#
Encoded date : UTC 2021-08-18 06:29:07
Writing application : mkvmerge v32.0.0 ('Astral Progressions') 64-bit
Writing library : libebml v1.3.7 + libmatroska v1.5.0
Video
ID : 1
Format : AVC
Format/Info : Advanced Video Codec
Format profile : High@L4.1
Format settings : CABAC / 5 Ref Frames
Format settings, CABAC : Yes
Format settings, Reference : 5 frames
Codec ID : V_MPEG4/ISO/AVC
Duration : 1 h 32 min
Bit rate : 5 500 kb/s
Width : 1 920 pixels
Height : 720 pixels
Display aspect ratio : 2.667
Frame rate mode : Constant
Frame rate : 23.976 (24000/1001) FPS
Color space : YUV
Chroma subsampling : 4:2:0
Bit depth : 8 bits
Scan type : Progressive
Bits/(Pixel*Frame) : 0.166
Stream size : 3.55 GiB (93%)
Writing library : x264 core 160 r3000 33f9e14
Encoding settings : cabac=1 / ref=5 / deblock=1:-2:-2 / analyse=0x3:0x113 / me=umh / subme=10 / psy=1 / psy_rd=1.00:0.20 / mixed_ref=1 / me_range=32 / chroma_me=1 / trellis=2 / 8x8dct=1 / cqm=0 / deadzone=21,11 / fast_pskip=0 / chroma_qp_offset=-3 / threads=22 / lookahead_threads=5 / sliced_threads=0 / nr=0 / decimate=1 / interlaced=0 / bluray_compat=0 / constrained_intra=0 / bframes=10 / b_pyramid=2 / b_adapt=2 / b_bias=0 / direct=3 / weightb=1 / open_gop=0 / weightp=2 / keyint=240 / keyint_min=23 / scenecut=40 / intra_refresh=0 / rc=2pass / mbtree=0 / bitrate=5500 / ratetol=1.0 / qcomp=0.60 / qpmin=0 / qpmax=69 / qpstep=4 / cplxblur=20.0 / qblur=0.5 / ip_ratio=1.40 / pb_ratio=1.30 / aq=1:1.00
Default : Yes
Forced : No
Audio
ID : 2
Format : AC-3
Format/Info : Audio Coding 3
Commercial name : Dolby Digital
Codec ID : A_AC3
Duration : 1 h 32 min
Bit rate mode : Constant
Bit rate : 384 kb/s
Channel(s) : 6 channels
Channel layout : L R C LFE Ls Rs
Sampling rate : 48.0 kHz
Frame rate : 31.250 FPS (1536 SPF)
Compression mode : Lossy
Stream size : 254 MiB (7%)
Title : Дубляж (iTunes)
Language : Russian
Service kind : Complete Main
Default : Yes
Forced : Yes
Text
ID : 3
Format : UTF-8
Codec ID : S_TEXT/UTF8
Codec ID/Info : UTF-8 Plain Text
Duration : 1 h 25 min
Bit rate : 41 b/s
Count of elements : 930
Stream size : 25.9 KiB (0%)
Title : Full
Language : English
Default : No
Forced : No
Menu
00:00:00.000 : :Chapter 01
00:06:44.112 : :Chapter 02
00:14:21.110 : :Chapter 03
00:21:37.254 : :Chapter 04
00:27:45.205 : :Chapter 05
00:32:59.769 : :Chapter 06
00:45:04.327 : :Chapter 07
00:53:06.975 : :Chapter 08
00:57:26.068 : :Chapter 09
01:09:01.763 : :Chapter 10
01:18:13.314 : :Chapter 11
01:27:29.995 : :Chapter 12

Скриншоты:

-

[Цитировать]



Показать сообщения:    

Текущее время: 19-Окт 07:28

Часовой пояс: UTC + 6


Вы не можете начинать темы
Вы не можете отвечать на сообщения
Вы не можете редактировать свои сообщения
Вы не можете удалять свои сообщения
Вы не можете голосовать в опросах
Вы не можете прикреплять файлы к сообщениям
Вы не можете скачивать файлы

!ВНИМАНИЕ!
Сайт не предоставляет электронные версии произведений, а занимается лишь коллекционированием и каталогизацией ссылок, присылаемых и публикуемых на форуме нашими читателями. Если вы являетесь правообладателем какого-либо представленного материала и не желаете, чтобы ссылка на него находилась в нашем каталоге, свяжитесь с нами, и мы незамедлительно удалим ее. Файлы для обмена на трекере предоставлены пользователями сайта, и администрация не несет ответственности за их содержание. Просьба не заливать файлы, защищенные авторскими правами, а также файлы нелегального содержания!