***Уважаемые пользователи и гости !!! Сайт переехал на новый домен Torrents-club.info. Просьба изменить ваши закладки! ***
 
[ Сегодня идет свободное скачивание без начисления Download ]


Статистика раздачи
Скачал: [ 2 ]
 
   
 
 
 
 
Рыцари справедливости / Retfærdighedens ryttere / Riders of Justice
- Производство: Дания, Швеция, Финляндия / Film i Väst, Zentropa Entertainments, Zentropa International Sweden
Жанр: Драма, комедия, боевик, криминал
Режиссер: Андерс Томас Йенсен
Продюсер: Сидсель Хюбшман, Сиссе Граум Йоргенсен, Андреас Бак
Актеры: Мадс Миккельсен, Николай Ли Каас, Андреа Хеик Гадеберг, Ларс Брюгманн, Николас Бро, Густав Линд, Роланд Мёллер, Альберт Рудбек Линдхардт, Энн Биргитте Линд, Омар Шаргави
Описание:
Когда жена Маркуса трагически погибает в железнодорожной катастрофе, это кажется нелепой случайностью. А если это тщательно спланированное убийство? Военный, сумасшедший математик и парочка гиков объединяются, чтобы выяснить, что случилось на самом деле. Теперь они — рыцари справедливости.

Возраст: 18+ (зрителям, достигшим 18 лет. запрещено для детей)
Дата мировой премьеры: 19 ноября 2020
Дата российской премьеры: 18 февраля 2021, «Capella Film»
Цифровой релиз: 12 июля 2021, «Capella Film»
Продолжительность: 01:55:55
Качество видео: BDRip 1080p
Перевод: Дублированный (iTunes)
Субтитры: Русские (Full), Английские (Full, SDH)
Видео: AVC/H.264, 1920x804, 11.0 Mbps, 24.000 fps
Аудио 1: AC-3, 6 ch, 384 Kbps | Русский
Аудио 2: DTS, 6 ch, 1509 Kbps | Датский

Mediainfo:

General
Unique ID : 174030135146950866875133300612558923183 (0x82ECFC1F2A05024D6735BEBF2DF6A5AF)
Complete name : /Volumes/Promise Pegasus/Riders.of.Justice.BDRip.1080p.pk.mkv
Format : Matroska
Format version : Version 4
File size : 10.4 GiB
Duration : 1 h 55 min
Overall bit rate : 12.9 Mb/s
Movie name : Riders of Justice BDRip 1080p pk
Encoded date : UTC 2021-08-19 16:55:16
Writing application : mkvmerge v53.0.0 ('Fool's Gold') 64-bit
Writing library : libebml v1.4.1 + libmatroska v1.6.2
Video
ID : 1
Format : AVC
Format/Info : Advanced Video Codec
Format profile : High@L4.1
Format settings : CABAC / 5 Ref Frames
Format settings, CABAC : Yes
Format settings, Reference frames : 5 frames
Codec ID : V_MPEG4/ISO/AVC
Duration : 1 h 55 min
Bit rate : 11.0 Mb/s
Width : 1 920 pixels
Height : 804 pixels
Display aspect ratio : 2.40:1
Frame rate mode : Constant
Frame rate : 24.000 FPS
Color space : YUV
Chroma subsampling : 4:2:0
Bit depth : 8 bits
Scan type : Progressive
Bits/(Pixel*Frame) : 0.296
Stream size : 8.89 GiB (85%)
Writing library : x264 core 164 r3065+55M 280faca t_mod_New [(8 & 10)-bit@all X86_64]
Encoding settings : cabac=1 / ref=5 / deblock=1:-3:-3 / analyse=0x3:0x133 / me=umh / subme=11 / psy=1 / fade_compensate=0.00 / psy_rd=1.05:0.00 / mixed_ref=1 / me_range=32 / chroma_me=1 / trellis=2 / 8x8dct=1 / cqm=0 / deadzone=21,11 / fast_pskip=0 / chroma_qp_offset=-2 / threads=25 / lookahead_threads=4 / sliced_threads=0 / nr=0 / decimate=0 / interlaced=0 / bluray_compat=0 / constrained_intra=0 / fgo=0 / bframes=9 / b_pyramid=2 / b_adapt=2 / b_bias=0 / direct=3 / weightb=1 / open_gop=0 / weightp=2 / keyint=240 / keyint_min=24 / scenecut=40 / intra_refresh=0 / rc_lookahead=60 / rc=crf / mbtree=0 / crf=16.8000 / qcomp=0.64 / qpmin=0:0:0 / qpmax=69:69:69 / qpstep=4 / vbv_maxrate=62500 / vbv_bufsize=78125 / crf_max=0.0 / nal_hrd=none / filler=0 / ip_ratio=1.30 / pb_ratio=1.20 / aq=3:0.75 / aq-sensitivity=10.00 / aq-factor=1.00:1.00:1.00 / aq2=0 / aq3=0
Language : English
Default : Yes
Forced : No
Color range : Limited
Color primaries : BT.709
Transfer characteristics : BT.709
Matrix coefficients : BT.709
Audio #1
ID : 2
Format : AC-3
Format/Info : Audio Coding 3
Commercial name : Dolby Digital
Codec ID : A_AC3
Duration : 1 h 55 min
Bit rate mode : Constant
Bit rate : 384 kb/s
Channel(s) : 6 channels
Channel layout : L R C LFE Ls Rs
Sampling rate : 48.0 kHz
Frame rate : 31.250 FPS (1536 SPF)
Compression mode : Lossy
Stream size : 318 MiB (3%)
Title : Dub iTunes
Language : Russian
Service kind : Complete Main
Default : Yes
Forced : No
Audio #2
ID : 3
Format : DTS
Format/Info : Digital Theater Systems
Codec ID : A_DTS
Duration : 1 h 55 min
Bit rate mode : Constant
Bit rate : 1 509 kb/s
Channel(s) : 6 channels
Channel layout : C L R Ls Rs LFE
Sampling rate : 48.0 kHz
Frame rate : 93.750 FPS (512 SPF)
Bit depth : 24 bits
Compression mode : Lossy
Stream size : 1.22 GiB (12%)
Title : Danish Original
Language : Danish
Default : No
Forced : No
Text #1
ID : 4
Format : UTF-8
Codec ID : S_TEXT/UTF8
Codec ID/Info : UTF-8 Plain Text
Duration : 1 h 52 min
Bit rate : 92 b/s
Count of elements : 1707
Stream size : 76.1 KiB (0%)
Title : Russian full
Language : Russian
Default : No
Forced : No
Text #2
ID : 5
Format : UTF-8
Codec ID : S_TEXT/UTF8
Codec ID/Info : UTF-8 Plain Text
Duration : 1 h 55 min
Bit rate : 55 b/s
Count of elements : 1124
Stream size : 47.1 KiB (0%)
Title : English full
Language : English
Default : No
Forced : No
Text #3
ID : 6
Format : UTF-8
Codec ID : S_TEXT/UTF8
Codec ID/Info : UTF-8 Plain Text
Duration : 1 h 55 min
Bit rate : 59 b/s
Count of elements : 1309
Stream size : 50.3 KiB (0%)
Title : English SDH
Language : English
Default : No
Forced : No
Menu
00:00:00.000 : :Chapter 1
00:09:59.958 : :Chapter 2
00:19:59.625 : :Chapter 3
00:29:59.750 : :Chapter 4
00:39:59.875 : :Chapter 5
00:50:00.000 : :Chapter 6
00:59:59.833 : :Chapter 7
01:09:59.833 : :Chapter 8
01:19:59.792 : :Chapter 9
01:29:59.917 : :Chapter 10
01:39:59.542 : :Chapter 11
01:49:59.708 : :Chapter 12

x264 log:

x264 [info]: frame I:1245 Avg QP:12.34 size:192213
x264 [info]: frame P:32026 Avg QP:14.11 size:106038
x264 [info]: frame B:133651 Avg QP:15.64 size: 44226
x264 [info]: consecutive B-frames: 1.5% 1.5% 5.4% 5.8% 7.6% 74.1% 2.6% 0.3% 0.6% 0.6%
x264 [info]: kb/s:10980.27

Скриншоты:

-

[Цитировать]



Показать сообщения:    

Текущее время: 26-Янв 13:58

Часовой пояс: UTC + 6


Вы не можете начинать темы
Вы не можете отвечать на сообщения
Вы не можете редактировать свои сообщения
Вы не можете удалять свои сообщения
Вы не можете голосовать в опросах
Вы не можете прикреплять файлы к сообщениям
Вы не можете скачивать файлы

!ВНИМАНИЕ!
Сайт не предоставляет электронные версии произведений, а занимается лишь коллекционированием и каталогизацией ссылок, присылаемых и публикуемых на форуме нашими читателями. Если вы являетесь правообладателем какого-либо представленного материала и не желаете, чтобы ссылка на него находилась в нашем каталоге, свяжитесь с нами, и мы незамедлительно удалим ее. Файлы для обмена на трекере предоставлены пользователями сайта, и администрация не несет ответственности за их содержание. Просьба не заливать файлы, защищенные авторскими правами, а также файлы нелегального содержания!