***Уважаемые пользователи и гости !!! Сайт переехал на новый домен Torrents-club.info. Просьба изменить ваши закладки! ***
 
[ Сегодня идет свободное скачивание без начисления Download ]


Статистика раздачи
Скачал: [ 1 ]
 
   
 
 
 
 
Лена и львенок / Lena and Snowball (2021) WEB-DL [H.264/1080p]
- Производство: США, Almost Never Films Inc., Fitz Family Films
Жанр: Комедия, приключения, семейный
Режиссер: Брайан Херцлингер
Актеры: Мелисса Коллазо, Майкл Перл, Эллиотт Санкрант, Майкл Фрэзиер, Спенсер Оллпорт, Дебора Арриета, Хантер Флэнеган, Роберт Неппер, Венди Прескотт Люк, Брэнском Ричмонд
Описание:
Двое не самых успешных контрабандистов пытаются передать белого львенка в руки богатого коллекционера экзотических зверей. Но все идет не по плану, и животное убегает. Судьба сводит львенка с девочкой Леной, которая недавно переехала и пока не нашла друзей. Она забирает животное домой и дает ему кличку Снежок. Однако в скором времени обозленные преследователи львенка нападают на след и приезжают в город, где живет Лена.

Возраст: 6+ (зрителям, достигшим 6 лет)
Рейтинг MPAA: PG (рекомендуется присутствие родителей)
Дата мировой премьеры: 5 января 2021,
Дата российской премьеры: 8 июля 2021, «Кинологистика»
Релиз от: BLUEBIRD
Продолжительность: 01:29:45
Качество видео: WEB-DL (Amazon)
Перевод: Дублированный (iTunes)
Язык озвучки: Русский
Субтитры: Английские
Видео: AVC/H.264, 1920х1080, ~7872 Kbps
Аудио 1: AC-3, 6 ch, 384 kbps - Русский (DUB, iTunes)
Аудио 2: AC-3, 6 ch, 640 kbps - Английский

MediaInfo:

Общее
Уникальный идентификатор : 295584472578942300985281266931234533716 (0xDE5F7FA9B9F51ABC96681DF8D4907154)
Полное имя : LENA_SNOWBALL_2021_WEB-DL_1080p_AMAZON-BLUEBIRD.mkv
Формат : Matroska
Версия формата : Version 4
Размер файла : 4,71 Гбайт
Продолжительность : 1 ч. 30 м.
Общий поток : 7 480 Кбит/сек
Название фильма : LENA_SNOWBALL_2021_WEB-DL_1080p_AMAZON-BLUEBIRD
Дата кодирования : UTC 2021-08-18 18:55:12
Программа кодирования : mkvmerge v51.0.0 ('I Wish') 64-bit
Библиотека кодирования : libebml v1.4.0 + libmatroska v1.6.2
Обложка : Yes
Attachments : cover.png
Видео
Идентификатор : 1
Формат : AVC
Формат/Информация : Advanced Video Codec
Профиль формата : High@L4
Настройки формата : CABAC / 4 Ref Frames
Параметр CABAC формата : Да
Параметр RefFrames формата : 4 кадра
Идентификатор кодека : V_MPEG4/ISO/AVC
Продолжительность : 1 ч. 30 м.
Битрейт : 6 453 Кбит/сек
Ширина : 1 920 пикселей
Высота : 1 080 пикселей
Соотношение сторон : 16:9
Режим частоты кадров : Постоянный
Частота кадров : 23,976 (24000/1001) кадра/сек
Цветовое пространство : YUV
Субдискретизация насыщенности : 4:2:0
Битовая глубина : 8 бит
Тип развёртки : Прогрессивная
Бит/(Пиксели*Кадры) : 0.130
Размер потока : 4,07 Гбайт (86%)
Заголовок : LENA_SNOWBALL_2021_WEB-DL_1080p_AMAZON-BLUEBIRD
Язык : English
Default : Да
Forced : Нет
Цветовой диапазон : Limited
Основные цвета : BT.709
Характеристики трансфера : BT.709
Коэффициенты матрицы : BT.709
Аудио #1
Идентификатор : 2
Формат : AC-3
Формат/Информация : Audio Coding 3
Коммерческое название : Dolby Digital
Идентификатор кодека : A_AC3
Продолжительность : 1 ч. 30 м.
Вид битрейта : Постоянный
Битрейт : 384 Кбит/сек
Каналы : 6 каналов
Channel layout : L R C LFE Ls Rs
Частота : 48,0 КГц
Частота кадров : 31,250 кадров/сек (1536 SPF)
Метод сжатия : С потерями
Задержка видео : -83 мс.
Размер потока : 248 Мбайт (5%)
Заголовок : [DUB] DD 5.1 @ 384 kbps (iTunes)
Язык : Russian
Service kind : Complete Main
Default : Да
Forced : Нет
Аудио #2
Идентификатор : 3
Формат : E-AC-3
Формат/Информация : Enhanced AC-3
Коммерческое название : Dolby Digital Plus
Идентификатор кодека : A_EAC3
Продолжительность : 1 ч. 30 м.
Вид битрейта : Постоянный
Битрейт : 640 Кбит/сек
Каналы : 6 каналов
Channel layout : L R C LFE Ls Rs
Частота : 48,0 КГц
Частота кадров : 31,250 кадров/сек (1536 SPF)
Метод сжатия : С потерями
Задержка видео : -83 мс.
Размер потока : 413 Мбайт (9%)
Заголовок : [ORIGINAL] DD+ 5.1 @ 640 kbps (Amazon)
Язык : English
Service kind : Complete Main
Default : Нет
Forced : Нет
Текст
Идентификатор : 4
Формат : UTF-8
Идентификатор кодека : S_TEXT/UTF8
Идентификатор кодека/Информация : UTF-8 Plain Text
Продолжительность : 1 ч. 28 м.
Битрейт : 66 бит/сек
Count of elements : 1447
Размер потока : 43,6 Кбайт (0%)
Заголовок : Full-length
Язык : English
Default : Нет
Forced : Нет

Скриншоты:

-

[Цитировать]



Показать сообщения:    

Текущее время: 08-Дек 02:52

Часовой пояс: UTC + 6


Вы не можете начинать темы
Вы не можете отвечать на сообщения
Вы не можете редактировать свои сообщения
Вы не можете удалять свои сообщения
Вы не можете голосовать в опросах
Вы не можете прикреплять файлы к сообщениям
Вы не можете скачивать файлы

!ВНИМАНИЕ!
Сайт не предоставляет электронные версии произведений, а занимается лишь коллекционированием и каталогизацией ссылок, присылаемых и публикуемых на форуме нашими читателями. Если вы являетесь правообладателем какого-либо представленного материала и не желаете, чтобы ссылка на него находилась в нашем каталоге, свяжитесь с нами, и мы незамедлительно удалим ее. Файлы для обмена на трекере предоставлены пользователями сайта, и администрация не несет ответственности за их содержание. Просьба не заливать файлы, защищенные авторскими правами, а также файлы нелегального содержания!