***Уважаемые пользователи и гости !!! Сайт переехал на новый домен Torrents-club.info. Просьба изменить ваши закладки! ***
 
[ Сегодня идет свободное скачивание без начисления Download ]


Статистика раздачи
Нет
 
   
 
 
 
 
Шпион по соседству / The Spy Next Door
- Производство: США / Relativity Media
Год производства: 2009
Премьера в мире: 15 января 2010
Премьера в России: 28 января 2010
Жанр: боевик, комедия, семейный
Режиссер: Брайан Левант
Продюсер: Роберт Симондз, Терри Годдар, Кен Хэлсбэнд
Актеры: Джеки Чан, Эмбер Валлетта, Мадлен Кэрролл, Уилл Шэдли, Алина Фоли, Магнус Шевинг, Билли Рэй Сайрус, Джордж Лопес, Кэтрин Бёхер, Миа Сталлард
Описание:
Агент Боб Хо обезвреживал террористов, ниспровергал диктаторов и крушил целые империи зла, но теперь его ждёт самое сложное задание за всю карьеру – на один вечер он должен стать нянькой. Здесь он снова использует профессиональную подготовку и уникальные навыки, однако скоро Боба ждут большие неприятности.

Возраст: 6+ (зрителям, достигшим 6 лет)
Рейтинг MPAA: PG (рекомендуется присутствие родителей)
Релиз от: OldGamer
Продолжительность: 01:34:20
Качество видео: BDRip
Перевод: дублированный, авторский
Язык озвучки: русский, английский
Субтитры: русские, английские (SDH)
Видео: HEVC/H.265, 1920x1080, ~13.6 Mbps
Аудио1: AC3, 6 ch, 448 Kbps - Русский, DUB (Саунд МФ)
Аудио2: AC3, 6 ch, 640 Kbps - Русский, AVO (Юрий Немахов)
Аудио3: AC3, 6 ch, 640 Kbps - Английский

MediaInfo:

x265 [info]: frame I: 570, Avg QP:18.26 kb/s: 32115.83
x265 [info]: frame P: 26051, Avg QP:19.61 kb/s: 24998.65
x265 [info]: frame B: 109098, Avg QP:21.71 kb/s: 10759.64
x265 [info]: Weighted P-Frames: Y:3.9% UV:3.2%
x265 [info]: Weighted B-Frames: Y:2.9% UV:2.3%
x265 [info]: consecutive B-frames: 2.7% 3.0% 4.7% 23.7% 14.3% 44.7% 4.3% 1.5% 0.8% 0.1% 0.2%
x265 [info]: encoded 135719 frames in 282874.81s (0.48 fps), 13582.48 kb/s, Avg QP:21.30
Общее
Уникальный идентификатор : 136451299128027061019125552449207118012 (0x66A790759459D5DB38EB83FFC337A8BC)
Полное имя : \\.\Шпион.по.соседству.The.Spy.Next.Door.2009.BDRip-HEVC.1080p.mkv
Формат : Matroska
Версия формата : Version 4
Размер файла : 10,1 Гбайт
Продолжительность : 1 ч. 34 м.
Общий поток : 15,3 Мбит/сек
Название фильма : Шпион.по.соседству.The.Spy.Next.Door.2009.BDRip-HEVC.1080p
Дата кодирования : UTC 2021-08-21 16:05:55
Программа кодирования : mkvmerge v60.0.0 ('Are We Copies?') 64-bit
Библиотека кодирования : libebml v1.4.2 + libmatroska v1.6.4
Видео
Идентификатор : 1
Формат : HEVC
Формат/Информация : High Efficiency Video Coding
Профиль формата : Main 10@L4.1@High
Идентификатор кодека : V_MPEGH/ISO/HEVC
Продолжительность : 1 ч. 34 м.
Битрейт : 13,6 Мбит/сек
Ширина : 1 920 пикселей
Высота : 1 080 пикселей
Соотношение сторон : 16:9
Режим частоты кадров : Постоянный
Частота кадров : 23,976 (24000/1001) кадра/сек
Цветовое пространство : YUV
Субдискретизация насыщенности : 4:2:0
Битовая глубина : 10 бит
Бит/(Пиксели*Кадры) : 0.273
Размер потока : 8,95 Гбайт (89%)
Заголовок : The Spy Next Door / Rip by OldGamer
Библиотека кодирования : x265 3.5+9-bf91444e0:[Windows][GCC 10.2.1][64 bit] 10bit
Настройки программы : cpuid=1111039 / frame-threads=3 / numa-pools=12 / wpp / no-pmode / no-pme / no-psnr / no-ssim / log-level=2 / input-csp=1 / input-res=1920x1080 / interlace=0 / total-frames=135719 / level-idc=41 / high-tier=1 / uhd-bd=0 / ref=5 / no-allow-non-conformance / no-repeat-headers / annexb / no-aud / no-eob / no-eos / no-hrd / info / hash=0 / no-temporal-layers / open-gop / min-keyint=23 / keyint=240 / gop-lookahead=0 / bframes=10 / b-adapt=2 / b-pyramid / bframe-bias=0 / rc-lookahead=40 / lookahead-slices=0 / scenecut=40 / hist-scenecut=0 / radl=0 / no-splice / no-intra-refresh / ctu=32 / min-cu-size=8 / rect / amp / max-tu-size=32 / tu-inter-depth=4 / tu-intra-depth=4 / limit-tu=1 / rdoq-level=2 / dynamic-rd=0.00 / no-ssim-rd / signhide / no-tskip / nr-intra=0 / nr-inter=0 / no-constrained-intra / no-strong-intra-smoothing / max-merge=5 / limit-refs=3 / no-limit-modes / me=3 / subme=7 / merange=57 / temporal-mvp / no-frame-dup / no-hme / weightp / weightb / no-analyze-src-pics / deblock=-2:-1 / no-sao / no-sao-non-deblock / rd=6 / selective-sao=0 / no-early-skip / rskip / no-fast-intra / no-tskip-fast / no-cu-lossless / b-intra / no-splitrd-skip / rdpenalty=0 / psy-rd=1.50 / psy-rdoq=0.75 / no-rd-refine / no-lossless / cbqpoffs=0 / crqpoffs=0 / rc=crf / crf=19.3 / qcomp=0.67 / qpstep=4 / stats-write=0 / stats-read=0 / vbv-maxrate=50000 / vbv-bufsize=50000 / vbv-init=0.9 / min-vbv-fullness=50.0 / max-vbv-fullness=80.0 / crf-max=0.0 / crf-min=0.0 / ipratio=1.40 / pbratio=1.30 / aq-mode=1 / aq-strength=1.00 / no-cutree / zone-count=1 / zones: / start-frame=129162 / end-frame=135719 / qp=36 / no-strict-cbr / qg-size=32 / no-rc-grain / qpmax=69 / qpmin=0 / no-const-vbv / sar=1 / overscan=0 / videoformat=5 / range=0 / colorprim=2 / transfer=2 / colormatrix=2 / chromaloc=0 / display-window=0 / cll=0,0 / min-luma=0 / max-luma=1023 / log2-max-poc-lsb=8 / vui-timing-info / vui-hrd-info / slices=1 / no-opt-qp-pps / no-opt-ref-list-length-pps / no-multi-pass-opt-rps / scenecut-bias=0.00 / hist-threshold=0.03 / no-opt-cu-delta-qp / no-aq-motion / no-hdr10 / no-hdr10-opt / no-dhdr10-opt / no-idr-recovery-sei / analysis-reuse-level=0 / analysis-save-reuse-level=0 / analysis-load-reuse-level=0 / scale-factor=0 / refine-intra=0 / refine-inter=0 / refine-mv=1 / refine-ctu-distortion=0 / no-limit-sao / ctu-info=0 / no-lowpass-dct / refine-analysis-type=0 / copy-pic=1 / max-ausize-factor=1.0 / no-dynamic-refine / no-single-sei / no-hevc-aq / no-svt / no-field / qp-adaptation-range=1.00 / scenecut-aware-qp=0conformance-window-offsets / right=0 / bottom=0 / decoder-max-rate=0 / no-vbv-live-multi-pass
Язык : English
Default : Да
Forced : Нет
Аудио #1
Идентификатор : 2
Формат : AC-3
Формат/Информация : Audio Coding 3
Коммерческое название : Dolby Digital
Идентификатор кодека : A_AC3
Продолжительность : 1 ч. 34 м.
Вид битрейта : Постоянный
Битрейт : 448 Кбит/сек
Каналы : 6 каналов
Channel layout : L R C LFE Ls Rs
Частота : 48,0 КГц
Частота кадров : 31,250 кадров/сек (1536 SPF)
Метод сжатия : С потерями
Размер потока : 302 Мбайт (3%)
Заголовок : DUB (Саунд МФ)
Язык : Russian
Service kind : Complete Main
Default : Да
Forced : Нет
Аудио #2
Идентификатор : 3
Формат : AC-3
Формат/Информация : Audio Coding 3
Коммерческое название : Dolby Digital
Идентификатор кодека : A_AC3
Продолжительность : 1 ч. 34 м.
Вид битрейта : Постоянный
Битрейт : 640 Кбит/сек
Каналы : 6 каналов
Channel layout : L R C LFE Ls Rs
Частота : 48,0 КГц
Частота кадров : 31,250 кадров/сек (1536 SPF)
Метод сжатия : С потерями
Размер потока : 432 Мбайт (4%)
Заголовок : AVO (Юрий Немахов)
Язык : Russian
Service kind : Complete Main
Default : Нет
Forced : Нет
Аудио #3
Идентификатор : 4
Формат : AC-3
Формат/Информация : Audio Coding 3
Коммерческое название : Dolby Digital
Идентификатор кодека : A_AC3
Продолжительность : 1 ч. 34 м.
Вид битрейта : Постоянный
Битрейт : 640 Кбит/сек
Каналы : 6 каналов
Channel layout : L R C LFE Ls Rs
Частота : 48,0 КГц
Частота кадров : 31,250 кадров/сек (1536 SPF)
Метод сжатия : С потерями
Размер потока : 432 Мбайт (4%)
Язык : English
Service kind : Complete Main
Default : Нет
Forced : Нет
Текст #1
Идентификатор : 5
Формат : UTF-8
Идентификатор кодека : S_TEXT/UTF8
Идентификатор кодека/Информация : UTF-8 Plain Text
Продолжительность : 1 ч. 28 м.
Битрейт : 83 бит/сек
Count of elements : 1070
Размер потока : 54,2 Кбайт (0%)
Заголовок : full
Язык : Russian
Default : Нет
Forced : Нет
Текст #2
Идентификатор : 6
Формат : UTF-8
Идентификатор кодека : S_TEXT/UTF8
Идентификатор кодека/Информация : UTF-8 Plain Text
Продолжительность : 1 ч. 27 м.
Битрейт : 54 бит/сек
Count of elements : 923
Размер потока : 35,0 Кбайт (0%)
Заголовок : full
Язык : English
Default : Нет
Forced : Нет
Текст #3
Идентификатор : 7
Формат : UTF-8
Идентификатор кодека : S_TEXT/UTF8
Идентификатор кодека/Информация : UTF-8 Plain Text
Продолжительность : 1 ч. 28 м.
Битрейт : 59 бит/сек
Count of elements : 1157
Размер потока : 38,5 Кбайт (0%)
Заголовок : SDH_full
Язык : English
Default : Нет
Forced : Нет
Меню
00:00:00.000 : The Next Step
00:07:51.500 : Taking Care Of Business
00:15:43.000 : Making An Effort
00:23:34.500 : Just What We Need
00:31:26.000 : Playing Games
00:39:17.500 : Almost Cool
00:47:09.000 : Back To School
00:55:00.500 : Have A Great Day
01:02:52.000 : Dinner Date
01:10:43.500 : Classified Material
01:18:35.000 : Just Go
01:26:26.500 : GBH File

Скриншоты:

-

[Цитировать]



Показать сообщения:    

Текущее время: 08-Дек 03:06

Часовой пояс: UTC + 6


Вы не можете начинать темы
Вы не можете отвечать на сообщения
Вы не можете редактировать свои сообщения
Вы не можете удалять свои сообщения
Вы не можете голосовать в опросах
Вы не можете прикреплять файлы к сообщениям
Вы не можете скачивать файлы

!ВНИМАНИЕ!
Сайт не предоставляет электронные версии произведений, а занимается лишь коллекционированием и каталогизацией ссылок, присылаемых и публикуемых на форуме нашими читателями. Если вы являетесь правообладателем какого-либо представленного материала и не желаете, чтобы ссылка на него находилась в нашем каталоге, свяжитесь с нами, и мы незамедлительно удалим ее. Файлы для обмена на трекере предоставлены пользователями сайта, и администрация не несет ответственности за их содержание. Просьба не заливать файлы, защищенные авторскими правами, а также файлы нелегального содержания!