***Уважаемые пользователи и гости !!! Сайт переехал на новый домен Torrents-club.info. Просьба изменить ваши закладки! ***
 
[ Сегодня идет свободное скачивание без начисления Download ]


Статистика раздачи
Скачал: [ 2 ]
 
   
 
 
 
 
Аниара: Космическая обитель / Aniara- Год выхода: 2018
Страна: Швеция, Дания, США
Студия: Meta Film Stockholm, Meta Film, Viaplay
Жанр: Фантастика, драма
Продолжительность: 01:45:40
Перевод: Профессиональный (полное дублирование) | IVI-Режиссер:
Пелла Когерман, Хюго Лиа-В ролях:
Эмили Йонсон, Бианка Крузейро, Арвин Кананян, Аннели Мартини, Йенния Сильверйельм, Эмма Бруме, Джамил Дрисси, Леон Джибер, Петер Карлберг, Хуан Родригез-О фильме:
Человечество отправляет поселенцев на Марс на нескольких космических кораблях. Пассажиры избалованы потреблением, так как на судах есть все необходимое современному человеку — это гигантские торговые центры. Но после того как один из кораблей под названием «Аниара» сбивается с курса и теряет управление, людям придется столкнуться с непредвиденными последствиями.- -Качество: BDRip 1080p
Формат: MKV
Видео: MPEG-4 AVC, 12.5 Mb/s, 1920x804
Аудио #01: 48 kHz, AC3, 5.1, 384 Kbps | Дублированный | IVI | RUS |
Аудио #02: 48 kHz, AC3, 5.1, 640 Kbps | Оригинал | SWE |
Аудио #03: 48 kHz, AC3, 5.1, 640 Kbps | Оригинал | ENG |
Субтитры: Russian (Full), English, Swedish
Дополнительно: Сохранены оригинальные чаптеры.-

MediaInfo:

Complete name : Aniara.2018.BDRip.1080p.ELEKTRI4KA.UNIONGANG.mkv
Format : Matroska
Format version : Version 4
File size : 10.5 GiB
Duration : 1 h 45 min
Overall bit rate : 14.2 Mb/s
Movie name : Aniara.2018.BDRip.1080p.ELEKTRI4KA.UNIONGANG.
Encoded date : UTC 2021-09-07 14:54:39
Writing application : mkvmerge v8.3.0 ('Over the Horizon') 32bit
Writing library : libebml v1.3.1 + libmatroska v1.4.2
Video
ID : 1
Format : AVC
Format/Info : Advanced Video Codec
Format profile : High@L4.1
Format settings : CABAC / 5 Ref Frames
Format settings, CABAC : Yes
Format settings, Reference frames : 5 frames
Codec ID : V_MPEG4/ISO/AVC
Duration : 1 h 45 min
Bit rate : 12.5 Mb/s
Width : 1 920 pixels
Height : 804 pixels
Display aspect ratio : 2.40:1
Frame rate mode : Constant
Frame rate : 23.976 (24000/1001) FPS
Color space : YUV
Chroma subsampling : 4:2:0
Bit depth : 8 bits
Scan type : Progressive
Bits/(Pixel*Frame) : 0.338
Stream size : 9.22 GiB (88%)
Writing library : x264 core 157 r2958 57baac4
Encoding settings : cabac=1 / ref=5 / deblock=1:-3:-3 / analyse=0x3:0x113 / me=umh / subme=10 / psy=1 / psy_rd=1.00:0.00 / mixed_ref=1 / me_range=32 / chroma_me=1 / trellis=2 / 8x8dct=1 / cqm=0 / deadzone=21, 11 / fast_pskip=0 / chroma_qp_offset=-2 / threads=49 / lookahead_threads=6 / sliced_threads=0 / nr=0 / decimate=0 / interlaced=0 / bluray_compat=0 / constrained_intra=0 / bframes=8 / b_pyramid=2 / b_adapt=2 / b_bias=0 / direct=3 / weightb=0 / open_gop=0 / weightp=2 / keyint=240 / keyint_min=24 / scenecut=40 / intra_refresh=0 / rc=2pass / mbtree=0 / bitrate=12500 / ratetol=1.0 / qcomp=0.60 / qpmin=0 / qpmax=69 / qpstep=4 / cplxblur=20.0 / qblur=0.5 / ip_ratio=1.40 / pb_ratio=1.30 / aq=1:1.00
Language : Swedish
Default : Yes
Forced : No
Color range : Limited
Color primaries : BT.709
Transfer characteristics : BT.709
Matrix coefficients : BT.709
Audio #1
ID : 2
Format : AC-3
Format/Info : Audio Coding 3
Commercial name : Dolby Digital
Codec ID : A_AC3
Duration : 1 h 45 min
Bit rate mode : Constant
Bit rate : 384 kb/s
Channel(s) : 6 channels
Channel layout : L R C LFE Ls Rs
Sampling rate : 48.0 kHz
Frame rate : 31.250 FPS (1536 SPF)
Compression mode : Lossy
Stream size : 290 MiB (3%)
Title : DUB (IVI)
Language : Russian
Service kind : Complete Main
Default : Yes
Forced : Yes
Audio #2
ID : 3
Format : AC-3
Format/Info : Audio Coding 3
Commercial name : Dolby Digital
Codec ID : A_AC3
Duration : 1 h 45 min
Bit rate mode : Constant
Bit rate : 640 kb/s
Channel(s) : 6 channels
Channel layout : L R C LFE Ls Rs
Sampling rate : 48.0 kHz
Frame rate : 31.250 FPS (1536 SPF)
Compression mode : Lossy
Stream size : 484 MiB (5%)
Title : Original
Language : Swedish
Service kind : Complete Main
Default : No
Forced : No
Audio #3
ID : 4
Format : AC-3
Format/Info : Audio Coding 3
Commercial name : Dolby Digital
Codec ID : A_AC3
Duration : 1 h 45 min
Bit rate mode : Constant
Bit rate : 640 kb/s
Channel(s) : 6 channels
Channel layout : L R C LFE Ls Rs
Sampling rate : 48.0 kHz
Frame rate : 31.250 FPS (1536 SPF)
Compression mode : Lossy
Stream size : 484 MiB (5%)
Title : English Dub
Language : English
Service kind : Complete Main
Default : No
Forced : No
Text #1
ID : 5
Format : UTF-8
Codec ID : S_TEXT/UTF8
Codec ID/Info : UTF-8 Plain Text
Duration : 1 h 40 min
Bit rate : 43 b/s
Count of elements : 670
Stream size : 32.0 KiB (0%)
Title : Full
Language : Russian
Default : Yes
Forced : No
Text #2
ID : 6
Format : UTF-8
Codec ID : S_TEXT/UTF8
Codec ID/Info : UTF-8 Plain Text
Duration : 1 h 45 min
Bit rate : 30 b/s
Count of elements : 733
Stream size : 23.8 KiB (0%)
Title : English Full
Language : English
Default : No
Forced : No
Text #3
ID : 7
Format : UTF-8
Codec ID : S_TEXT/UTF8
Codec ID/Info : UTF-8 Plain Text
Duration : 1 h 40 min
Bit rate : 40 b/s
Count of elements : 1046
Stream size : 30.0 KiB (0%)
Title : English SDH
Language : English
Default : No
Forced : No
Text #4
ID : 8
Format : UTF-8
Codec ID : S_TEXT/UTF8
Codec ID/Info : UTF-8 Plain Text
Duration : 1 h 43 min
Bit rate : 33 b/s
Count of elements : 670
Stream size : 25.1 KiB (0%)
Title : Swedish
Language : Swedish
Default : No
Forced : No
Menu
00:00:00.000 : en:Chapter 1
00:09:31.696 : en:Chapter 2
00:18:57.719 : en:Chapter 3
00:26:38.596 : en:Chapter 4
00:37:19.946 : en:Chapter 5
00:45:42.530 : en:Chapter 6
00:55:24.987 : en:Chapter 7
01:03:53.996 : en:Chapter 8
01:12:55.788 : en:Chapter 9
01:23:09.108 : en:Chapter 10
01:29:21.480 : en:Chapter 11
01:40:20.514 : en:Chapter 12

Скриншоты


Релиз группы: &

[Цитировать]



Показать сообщения:    

Текущее время: 14-Июл 10:23

Часовой пояс: UTC + 6


Вы не можете начинать темы
Вы не можете отвечать на сообщения
Вы не можете редактировать свои сообщения
Вы не можете удалять свои сообщения
Вы не можете голосовать в опросах
Вы не можете прикреплять файлы к сообщениям
Вы не можете скачивать файлы

!ВНИМАНИЕ!
Сайт не предоставляет электронные версии произведений, а занимается лишь коллекционированием и каталогизацией ссылок, присылаемых и публикуемых на форуме нашими читателями. Если вы являетесь правообладателем какого-либо представленного материала и не желаете, чтобы ссылка на него находилась в нашем каталоге, свяжитесь с нами, и мы незамедлительно удалим ее. Файлы для обмена на трекере предоставлены пользователями сайта, и администрация не несет ответственности за их содержание. Просьба не заливать файлы, защищенные авторскими правами, а также файлы нелегального содержания!