***Уважаемые пользователи и гости !!! Сайт переехал на новый домен Torrents-club.info. Просьба изменить ваши закладки! ***
 
[ Сегодня идет свободное скачивание без начисления Download ]


Статистика раздачи
Нет
 
   
 
 
 
 
Долгий уикенд / Long Weekend Название: Долгий уикенд
Оригинальное название: Long Weekend
Страна: Австралия
Жанр: ужасы, детектив, триллер
Год выпуска: 1978
Продолжительность: 01:35:09
Режиссер: Колин Эгглстон
В ролях: Джон Харгривз, Брайони Бехетс, Майк МакЭвен, Рой Дэй, Майкл Эйткенс, Сью Кишш фон Соли
О фильме: Семейная пара едет на уикэнд на пустынный пляж. Эта поездка - своего рода попытка спасти брак, хотя, как становится понятно потом, довольно странная. Недомолвки, раздражительность, невнимательность - всё это мы видим в изобилии, и фильм не стремится объяснять сразу же, что между ними происходит и почему. Только постепенно мы узнаём, что случилось...

Качество: BDRip-AVC
Формат: MKV
Видео: MPEG-4 AVC, 4011 Kбит/с, 1024x422, 23.976 Кадр/с
Аудио 1: русский, AC3, 192 kbps, 2 ch, 48 kHz [любительский закадровый одноголосый, cmert]
Аудио 2: английский, AC3, 448 kbps, 6 ch, 48 kHz [оригинал]
Субтитры 1: русские (SRT)
Субтитры 2: английские (SRT)
Главы/чаптеры

MediaInfo

Общее
Уникальный идентификатор : 320283802851705593050905623126758451274 (0xF0F46AAA52D6FC07C7D516A8FDF8E84A)
Полное имя : D:VideoДолгий уикенд.1978.BDRip-AVC msltel.mkv
Формат : Matroska
Версия формата : Version 4
Размер файла : 3,09 Гбайт
Продолжительность : 1 ч. 35 м.
Общий поток : 4 653 Кбит/сек
Название фильма : Долгий уикенд.1978.BDRip-AVC msltel
Дата кодирования : UTC 2021-09-14 09:44:44
Программа кодирования : mkvmerge v44.0.0 ('Domino') 64-bit
Библиотека кодирования : libebml v1.3.10 + libmatroska v1.5.2
Видео
Идентификатор : 1
Формат : AVC
Формат/Информация : Advanced Video Codec
Профиль формата : High@L4.1
Настройки формата : CABAC / 16 Ref Frames
Параметр CABAC формата : Да
Параметр RefFrames формата : 16 кадров
Идентификатор кодека : V_MPEG4/ISO/AVC
Продолжительность : 1 ч. 35 м.
Битрейт : 4 011 Кбит/сек
Ширина : 1 024 пикселя
Высота : 422 пикселя
Соотношение сторон : 2,40:1
Режим частоты кадров : Постоянный
Частота кадров : 23,976 (24000/1001) кадра/сек
Цветовое пространство : YUV
Субдискретизация насыщенности : 4:2:0
Битовая глубина : 8 бит
Тип развёртки : Прогрессивная
Бит/(Пиксели*Кадры) : 0.387
Размер потока : 2,67 Гбайт (86%)
Библиотека кодирования : x264 core 161 r3018 db0d417
Настройки программы : cabac=1 / ref=16 / deblock=1:-3:-3 / analyse=0x3:0x113 / me=umh / subme=11 / psy=1 / psy_rd=1.05:0.00 / mixed_ref=1 / me_range=32 / chroma_me=1 / trellis=2 / 8x8dct=1 / cqm=0 / deadzone=21,11 / fast_pskip=0 / chroma_qp_offset=-2 / threads=12 / lookahead_threads=3 / sliced_threads=0 / nr=0 / decimate=0 / interlaced=0 / bluray_compat=0 / constrained_intra=0 / bframes=14 / b_pyramid=2 / b_adapt=2 / b_bias=0 / direct=1 / weightb=1 / open_gop=0 / weightp=2 / keyint=230 / keyint_min=23 / scenecut=40 / intra_refresh=0 / rc_lookahead=40 / rc=crf / mbtree=0 / crf=18.0 / qcomp=0.60 / qpmin=0 / qpmax=69 / qpstep=4 / vbv_maxrate=50000 / vbv_bufsize=62500 / crf_max=0.0 / nal_hrd=none / filler=0 / ip_ratio=1.40 / pb_ratio=1.30 / aq=3:1.00
Язык : English
Default : Да
Forced : Нет
Аудио #1
Идентификатор : 2
Формат : AC-3
Формат/Информация : Audio Coding 3
Коммерческое название : Dolby Digital
Идентификатор кодека : A_AC3
Продолжительность : 1 ч. 35 м.
Вид битрейта : Постоянный
Битрейт : 192 Кбит/сек
Каналы : 2 канала
Channel layout : L R
Частота : 48,0 КГц
Частота кадров : 31,250 кадров/сек (1536 SPF)
Метод сжатия : С потерями
Размер потока : 131 Мбайт (4%)
Заголовок : VO cmert
Язык : Russian
Service kind : Complete Main
Default : Да
Forced : Нет
Аудио #2
Идентификатор : 3
Формат : AC-3
Формат/Информация : Audio Coding 3
Коммерческое название : Dolby Digital
Идентификатор кодека : A_AC3
Продолжительность : 1 ч. 35 м.
Вид битрейта : Постоянный
Битрейт : 448 Кбит/сек
Каналы : 6 каналов
Channel layout : L R C LFE Ls Rs
Частота : 48,0 КГц
Частота кадров : 31,250 кадров/сек (1536 SPF)
Метод сжатия : С потерями
Размер потока : 305 Мбайт (10%)
Заголовок : оригинал
Язык : English
Service kind : Complete Main
Default : Нет
Forced : Нет
Текст #1
Идентификатор : 4
Формат : UTF-8
Идентификатор кодека : S_TEXT/UTF8
Идентификатор кодека/Информация : UTF-8 Plain Text
Продолжительность : 1 ч. 24 м.
Битрейт : 39 бит/сек
Count of elements : 462
Размер потока : 24,5 Кбайт (0%)
Заголовок : русские
Язык : Russian
Default : Нет
Forced : Нет
Текст #2
Идентификатор : 5
Формат : UTF-8
Идентификатор кодека : S_TEXT/UTF8
Идентификатор кодека/Информация : UTF-8 Plain Text
Продолжительность : 1 ч. 33 м.
Битрейт : 27 бит/сек
Count of elements : 719
Размер потока : 18,8 Кбайт (0%)
Заголовок : английские SDH
Язык : English
Default : Нет
Forced : Нет
Меню
00:00:00.000 : en:Глава 01
00:05:43.301 : en:Глава 02
00:15:13.412 : en:Глава 03
00:24:52.824 : en:Глава 04
00:30:38.628 : en:Глава 05
00:37:25.368 : en:Глава 06
00:44:10.064 : en:Глава 07
00:51:52.818 : en:Глава 08
00:57:05.004 : en:Глава 09
01:05:05.860 : en:Глава 10
01:11:10.933 : en:Глава 11
01:15:18.931 : en:Глава 12
01:22:56.471 : en:Глава 13
01:33:36.694 : en:Глава 14

Скриншоты

Сравнение с исходником

Исходник vs Рип


[Цитировать]



Показать сообщения:    

Текущее время: 20-Сен 01:23

Часовой пояс: UTC + 6


Вы не можете начинать темы
Вы не можете отвечать на сообщения
Вы не можете редактировать свои сообщения
Вы не можете удалять свои сообщения
Вы не можете голосовать в опросах
Вы не можете прикреплять файлы к сообщениям
Вы не можете скачивать файлы

!ВНИМАНИЕ!
Сайт не предоставляет электронные версии произведений, а занимается лишь коллекционированием и каталогизацией ссылок, присылаемых и публикуемых на форуме нашими читателями. Если вы являетесь правообладателем какого-либо представленного материала и не желаете, чтобы ссылка на него находилась в нашем каталоге, свяжитесь с нами, и мы незамедлительно удалим ее. Файлы для обмена на трекере предоставлены пользователями сайта, и администрация не несет ответственности за их содержание. Просьба не заливать файлы, защищенные авторскими правами, а также файлы нелегального содержания!