***Уважаемые пользователи и гости !!! Сайт переехал на новый домен Torrents-club.info. Просьба изменить ваши закладки! ***
 
[ Сегодня идет свободное скачивание без начисления Download ]


Статистика раздачи
Нет
 
   
 
 
 
 
Престиж / The Prestige Информация о фильме
Название: Престиж
Оригинальное название: The Prestige
Год выпуска: 2006
Жанр: фантастика, триллер, драма, детектив
Режиссер: Кристофер Нолан
В ролях: Хью Джекман (Robert Angier), Кристиан Бэйл (Alfred Borden), Майкл Кейн (Cutter), Пайпер Перабо (Julia McCullough), Ребекка Холл (Sarah), Скарлетт Йоханссон (Olivia Wenscombe), Саманта Мэхурин (Jess), Дэвид Боуи (Tesla), Энди Серкис (Alley), Дэниэл Дэвис (Judge), Джим Пиддок (Prosecutor), Кристофер Ним (Defender)
О фильме: Роберт и Альфред — фокусники-иллюзионисты, которые на рубеже XIX и XX веков соперничали друг с другом в Лондоне. С годами их дружеская конкуренция на профессиональной почве перерастает в настоящую войну.
Они готовы на все, чтобы выведать друг у друга секреты фантастических трюков и сорвать их исполнение. Непримиримая вражда, вспыхнувшая между ними, начинает угрожать жизни окружающих их людей…

MPAA: PG-13 - Детям до 13 лет просмотр не желателен
Страна: США, Великобритания
Студия: Newmarket Productions, Syncopy, Touchstone Pictures, Warner Bros. Pictures
Продолжительность: 02:10:29
Перевод: Профессиональный (дублированный), Профессиональный (двухголосый, закадровый), Авторский (одноголосый, закадровый)
Файл
Качество: BDRip 720p
Формат: Matroska
Видео: 1280x546 at 23.976 fps, x264, ~4505 kbps avg
Аудио#1: Russian: 48 kHz, AC3, 3/2 (L,C,R,l,r) + LFE ch, ~640 kbps avg |Дубляж, Blu-ray CEE|
Аудио#2: Russian: 48 kHz, AC3, 3/2 (L,C,R,l,r) + LFE ch, ~640 kbps avg |Двухголосый закадровый|
Аудио#3: Russian: 48 kHz, AC3, 3/2 (L,C,R,l,r) + LFE ch, ~448 kbps avg |Двухголосый закадровый, П.Гланц и И.Королёва|
Аудио#4: Russian: 48 kHz, AC3, 3/2 (L,C,R,l,r) + LFE ch, ~448 kbps avg |Авторский, С.Визгунов|
Аудио#5: Russian: 48 kHz, AC3, 3/2 (L,C,R,l,r) + LFE ch, ~448 kbps avg |Авторский, А.Гаврилов|
Аудио#6: Russian: 48 kHz, AC3, 3/2 (L,C,R,l,r) + LFE ch, ~448 kbps avg |Авторский, В.Королёв|
Аудио#7: Russian: 48 kHz, AC3, 3/2 (L,C,R,l,r) + LFE ch, ~448 kbps avg |Авторский, Ю.Сербин|
Аудио#8: English: 48 kHz, AC3, 3/2 (L,C,R,l,r) + LFE ch, ~448 kbps avg
Субтитры: Russian, English
***Сохранены оригинальные главы как на Blu-ray.
***Релиз: msltel.

Знаете ли вы, что...

Фильм снят по мотивам романа Кристофера Приста «Престиж» (The Prestige, 1995).
Создатель «Красоты по-американски» Сэм Мендес безумно хотел перенести роман «Престиж» на экран, но автор романа Кристофер Прист настоял на том, чтобы экранизацией занялся Нолан, настолько он был впечатлен фильмами «Преследование» и «Помни».
Роль фокусника Милтона исполнил настоящий иллюзионист Рикки Джей. Помимо всего прочего, он преподавал уроки фокусов Бэйлу и Джекману.
Кристофер Нолан планировал снять этот фильм ещё до «Бэтмена: Начало».
На раннем этапе производства режиссёр Нолан планировал на одну из главных ролей Джуда Лоу.
Энди Серкис, исполнитель роли Голлума в трилогии «Властелин колец», стал последним актёром, присоединившимся к звёздному составу фильма. Он сыграл мистера Элли, ассистента изобретателя Тесла.
Съёмки картины продолжались с января по апрель 2006 года в Калифорнии, США.
Кристофер Нолан написал сценарий в соавторстве со своим братом Джонатаном. Они основательно переделали сюжет книги; в частности, убрали всю современную линию, а также сделали Анджиэра и Бордена приятелями еще до их смертельного противостояния. В книге главные герои не были знакомы друг с другом, пока не началась их вражда.
Во время сцены с ловлей пули в списке исполнителей значится имя Гари Дрезден. На самом деле Гарри Дрезден - это вымышленный волшебник, герой серии книжек «Записки Дрездена», созданных Джимом Батчером.
Фокусник Чанг Линг Су - не вымышленный герой. Скончался он на сцене, когда неудачно исполнил трюк «Поймай пулю».
Слово «престиж» упоминается в рекламном ролике фильма как «эффект, который производит магический трюк на аудиторию, не способную разгадать его тайну». В романе-первооснове это слово имеет и другой, по-настоящему мистический характер.

MediaInfo

Общее
Уникальный идентификатор : 197064541911182107897888264607773817853 (0x9441400EB44D693BB2A088AD3D2CFBFD)
Полное имя : Престиж.2006.BDRip.720p by msltel.mkv
Формат : Matroska
Версия формата : Version 4 / Version 2
Размер файла : 7,88 Гбайт
Продолжительность : 2 ч. 10 м.
Общий поток : 8645 Кбит/сек
Название фильма : Rip by msltel
Дата кодирования : UTC 2018-01-21 02:50:59
Программа кодирования : mkvmerge v8.2.0 ('World of Adventure') 64bit
Библиотека кодирования : libebml v1.3.1 + libmatroska v1.4.2
Видео
Идентификатор : 1
Формат : AVC
Формат/Информация : Advanced Video Codec
Профиль формата : High@L4.1
Параметр CABAC формата : Да
Параметр ReFrames формата : 9 кадров
Идентификатор кодека : V_MPEG4/ISO/AVC
Продолжительность : 2 ч. 10 м.
Битрейт : 4505 Кбит/сек
Ширина : 1280 пикселей
Высота : 546 пикселей
Соотношение сторон : 2,35:1
Режим частоты кадров : Постоянный
Частота кадров : 23,976 кадра/сек
Цветовое пространство : YUV
Субдискретизация насыщенности : 4:2:0
Битовая глубина : 8 бит
Тип развёртки : Прогрессивная
Бит/(Пиксели*Кадры) : 0.269
Размер потока : 4,11 Гбайт (52%)
Библиотека кодирования : x264 core 146 r2538 121396c
Настройки программы : cabac=1 / ref=9 / deblock=1:-3:-2 / analyse=0x3:0x113 / me=umh / subme=11 / psy=1 / psy_rd=1.00:0.15 / mixed_ref=1 / me_range=32 / chroma_me=1 / trellis=2 / 8x8dct=1 / cqm=0 / deadzone=21,11 / fast_pskip=0 / chroma_qp_offset=-3 / threads=6 / lookahead_threads=1 / sliced_threads=0 / nr=0 / decimate=1 / interlaced=0 / bluray_compat=0 / constrained_intra=0 / bframes=10 / b_pyramid=2 / b_adapt=2 / b_bias=0 / direct=1 / weightb=1 / open_gop=0 / weightp=2 / keyint=230 / keyint_min=23 / scenecut=40 / intra_refresh=0 / rc_lookahead=40 / rc=crf / mbtree=0 / crf=18.3 / qcomp=0.60 / qpmin=0 / qpmax=69 / qpstep=4 / vbv_maxrate=62500 / vbv_bufsize=78125 / crf_max=0.0 / nal_hrd=none / filler=0 / ip_ratio=1.40 / pb_ratio=1.30 / aq=1:1.00
Язык : English
Default : Да
Forced : Нет
Аудио #1
Идентификатор : 2
Формат : AC-3
Формат/Информация : Audio Coding 3
Расширение режима : CM (complete main)
Параметр Endianness формата : Big
Идентификатор кодека : A_AC3
Продолжительность : 2 ч. 10 м.
Вид битрейта : Постоянный
Битрейт : 640 Кбит/сек
Каналы : 6 каналов
Расположение каналов : Front: L C R, Side: L R, LFE
Частота : 48,0 КГц
Битовая глубина : 16 бит
Метод сжатия : С потерями
Размер потока : 597 Мбайт (7%)
Заголовок : DUB.Blu-Ray CEE
Язык : Russian
Default : Да
Forced : Нет
Аудио #2
Идентификатор : 3
Формат : AC-3
Формат/Информация : Audio Coding 3
Расширение режима : CM (complete main)
Параметр Endianness формата : Big
Идентификатор кодека : A_AC3
Продолжительность : 2 ч. 10 м.
Вид битрейта : Постоянный
Битрейт : 640 Кбит/сек
Каналы : 6 каналов
Расположение каналов : Front: L C R, Side: L R, LFE
Частота : 48,0 КГц
Битовая глубина : 16 бит
Метод сжатия : С потерями
Размер потока : 597 Мбайт (7%)
Заголовок : DVO
Язык : Russian
Default : Нет
Forced : Нет
Аудио #3
Идентификатор : 4
Формат : AC-3
Формат/Информация : Audio Coding 3
Расширение режима : CM (complete main)
Параметр Endianness формата : Big
Идентификатор кодека : A_AC3
Продолжительность : 2 ч. 10 м.
Вид битрейта : Постоянный
Битрейт : 448 Кбит/сек
Каналы : 6 каналов
Расположение каналов : Front: L C R, Side: L R, LFE
Частота : 48,0 КГц
Битовая глубина : 16 бит
Метод сжатия : С потерями
Размер потока : 418 Мбайт (5%)
Заголовок : Пётр Гланц и Инна Королёва
Язык : Russian
Default : Нет
Forced : Нет
Аудио #4
Идентификатор : 5
Формат : AC-3
Формат/Информация : Audio Coding 3
Расширение режима : CM (complete main)
Параметр Endianness формата : Big
Идентификатор кодека : A_AC3
Продолжительность : 2 ч. 10 м.
Вид битрейта : Постоянный
Битрейт : 448 Кбит/сек
Каналы : 6 каналов
Расположение каналов : Front: L C R, Side: L R, LFE
Частота : 48,0 КГц
Битовая глубина : 16 бит
Метод сжатия : С потерями
Размер потока : 418 Мбайт (5%)
Заголовок : Сергей Визгунов
Язык : Russian
Default : Нет
Forced : Нет
Аудио #5
Идентификатор : 6
Формат : AC-3
Формат/Информация : Audio Coding 3
Расширение режима : CM (complete main)
Параметр Endianness формата : Big
Идентификатор кодека : A_AC3
Продолжительность : 2 ч. 10 м.
Вид битрейта : Постоянный
Битрейт : 448 Кбит/сек
Каналы : 6 каналов
Расположение каналов : Front: L C R, Side: L R, LFE
Частота : 48,0 КГц
Битовая глубина : 16 бит
Метод сжатия : С потерями
Размер потока : 418 Мбайт (5%)
Заголовок : Андрей Гаврилов
Язык : Russian
Default : Нет
Forced : Нет
Аудио #6
Идентификатор : 7
Формат : AC-3
Формат/Информация : Audio Coding 3
Расширение режима : CM (complete main)
Параметр Endianness формата : Big
Идентификатор кодека : A_AC3
Продолжительность : 2 ч. 10 м.
Вид битрейта : Постоянный
Битрейт : 448 Кбит/сек
Каналы : 6 каналов
Расположение каналов : Front: L C R, Side: L R, LFE
Частота : 48,0 КГц
Битовая глубина : 16 бит
Метод сжатия : С потерями
Размер потока : 418 Мбайт (5%)
Заголовок : Владимир Королёв
Язык : Russian
Default : Нет
Forced : Нет
Аудио #7
Идентификатор : 8
Формат : AC-3
Формат/Информация : Audio Coding 3
Расширение режима : CM (complete main)
Параметр Endianness формата : Big
Идентификатор кодека : A_AC3
Продолжительность : 2 ч. 10 м.
Вид битрейта : Постоянный
Битрейт : 448 Кбит/сек
Каналы : 6 каналов
Расположение каналов : Front: L C R, Side: L R, LFE
Частота : 48,0 КГц
Битовая глубина : 16 бит
Метод сжатия : С потерями
Размер потока : 418 Мбайт (5%)
Заголовок : Юрий Сербин
Язык : Russian
Default : Нет
Forced : Нет
Аудио #8
Идентификатор : 9
Формат : AC-3
Формат/Информация : Audio Coding 3
Расширение режима : CM (complete main)
Параметр Endianness формата : Big
Идентификатор кодека : A_AC3
Продолжительность : 2 ч. 10 м.
Вид битрейта : Постоянный
Битрейт : 448 Кбит/сек
Каналы : 6 каналов
Расположение каналов : Front: L C R, Side: L R, LFE
Частота : 48,0 КГц
Битовая глубина : 16 бит
Метод сжатия : С потерями
Размер потока : 418 Мбайт (5%)
Заголовок : original
Язык : English
Default : Нет
Forced : Нет
Текст #1
Идентификатор : 10
Формат : UTF-8
Идентификатор кодека : S_TEXT/UTF8
Идентификатор кодека/Информация : UTF-8 Plain Text
Заголовок : русские
Язык : Russian
Default : Нет
Forced : Нет
Текст #2
Идентификатор : 11
Формат : UTF-8
Идентификатор кодека : S_TEXT/UTF8
Идентификатор кодека/Информация : UTF-8 Plain Text
Заголовок : английские
Язык : English
Default : Нет
Forced : Нет
Меню
00:00:00.000 : en:Chapter 01
00:03:30.585 : en:Chapter 02
00:07:45.756 : en:Chapter 03
00:11:40.574 : en:Chapter 04
00:16:03.963 : en:Chapter 05
00:23:19.481 : en:Chapter 06
00:27:20.180 : en:Chapter 07
00:33:59.746 : en:Chapter 08
00:38:46.615 : en:Chapter 09
00:44:34.004 : en:Chapter 10
00:49:27.839 : en:Chapter 11
00:53:28.455 : en:Chapter 12
00:59:49.711 : en:Chapter 13
01:04:01.128 : en:Chapter 14
01:08:48.332 : en:Chapter 15
01:12:57.831 : en:Chapter 16
01:17:46.912 : en:Chapter 17
01:23:16.324 : en:Chapter 18
01:35:49.535 : en:Chapter 19
01:40:19.263 : en:Chapter 20
01:45:17.185 : en:Chapter 21
01:49:03.161 : en:Chapter 22
01:55:06.566 : en:Chapter 23
02:04:59.450 : en:Chapter 24

Скриншоты

[Цитировать]



Показать сообщения:    

Текущее время: 20-Сен 02:18

Часовой пояс: UTC + 6


Вы не можете начинать темы
Вы не можете отвечать на сообщения
Вы не можете редактировать свои сообщения
Вы не можете удалять свои сообщения
Вы не можете голосовать в опросах
Вы не можете прикреплять файлы к сообщениям
Вы не можете скачивать файлы

!ВНИМАНИЕ!
Сайт не предоставляет электронные версии произведений, а занимается лишь коллекционированием и каталогизацией ссылок, присылаемых и публикуемых на форуме нашими читателями. Если вы являетесь правообладателем какого-либо представленного материала и не желаете, чтобы ссылка на него находилась в нашем каталоге, свяжитесь с нами, и мы незамедлительно удалим ее. Файлы для обмена на трекере предоставлены пользователями сайта, и администрация не несет ответственности за их содержание. Просьба не заливать файлы, защищенные авторскими правами, а также файлы нелегального содержания!