***Уважаемые пользователи и гости !!! Сайт переехал на новый домен Torrents-club.info. Просьба изменить ваши закладки! ***
 
[ Сегодня идет свободное скачивание без начисления Download ]


Статистика раздачи
Скачал: [ 1 ]
 
   
 
 
 
 
Форсаж 9 / F9 / F9: The Fast Saga
- Производство: США, Таиланд, Канада / Original Film,Universal Pictures
Жанр: Боевик, триллер, криминал, приключения
Режиссер: Джастин Лин
Продюсер: Sophio Bendiashvili, Вин Дизель, Kevin Elam
Актеры:
Вин Дизель, Джон Сина, Тайриз Гибсон, Лудакрис, Джордана Брюстер, Натали Эммануэль, Мишель Родригес, Сон Ган, Шарлиз Терон, Анна Саваи
Описание:
Доминик Торетто ведет спокойную жизнь вместе с Летти и сыном Брайаном, но новая опасность всегда где-то рядом. В этот раз Доминику придется встретиться с призраками прошлого, если он хочет спасти самых близких. Команда снова собирается вместе, чтобы предотвратить дерзкий план по захвату мира, который придумал самый опасный преступник и безбашенный водитель из всех, с кем они сталкивались ранее. Ситуация усложняется тем, что этот человек — брат Доминика Джейкоб, которого много лет назад изгнали из семьи.

Возраст: 12+ (Зрителям, достигшим 12 лет)
Рейтинг MPAA: PG-13 (Детям до 13 просмотр не желателен)
Дата мировой премьеры: 19 мая 2021
Дата российской премьеры: 19 мая 2021, «UPI»
Цифровой релиз: 10 сентября 2021, «Universal».
Релиз от: TeamHD
Продолжительность: 02:22:52
Качество видео: BDRemux 1080p.
Перевод: Дублированный (iTunes)
Субтитры: Русские (2xForced), Английские (Full, SDH)
Видео: AVC/H.264, 1920x1080, 19.3 Mbps, 23.976 fps
Аудио 1: AC-3, 6 ch, 384 Kbps | Русский Dub iTunes + субтитры
Аудио 2: AC-3, 6 ch, 384 Kbps | Украинский Dub iTunes + вставки оригинала
Аудио 3: TrueHD, 8.0 ch, 3095 Kbps | Английский
Аудио 4: AC-3, 6 ch, 448 Kbps | Английский

Mediainfo:

General
Unique ID : 86611525564271775214248291897879125987 (0x4128C5E758E68AFF28CCFFBD18A95FE3)
Complete name : /Volumes/Promise Pegasus/F9.Director's Cut.2021.BDRemux.1080p.mkv
Format : Matroska
Format version : Version 4
File size : 24.8 GiB
Duration : 2 h 29 min
Overall bit rate mode : Variable
Overall bit rate : 23.7 Mb/s
Movie name : F9 Director's Cut 2021 BDRemux 1080p
Encoded date : UTC 2021-09-14 22:36:08
Writing application : mkvmerge v53.0.0 ('Fool's Gold') 64-bit
Writing library : libebml v1.4.1 + libmatroska v1.6.2
Video
ID : 1
Format : AVC
Format/Info : Advanced Video Codec
Format profile : High@L4.1
Format settings : CABAC / 4 Ref Frames
Format settings, CABAC : Yes
Format settings, Reference frames : 4 frames
Codec ID : V_MPEG4/ISO/AVC
Duration : 2 h 29 min
Bit rate mode : Variable
Bit rate : 19.3 Mb/s
Maximum bit rate : 31.0 Mb/s
Width : 1 920 pixels
Height : 1 080 pixels
Display aspect ratio : 16:9
Frame rate mode : Constant
Frame rate : 23.976 (24000/1001) FPS
Color space : YUV
Chroma subsampling : 4:2:0
Bit depth : 8 bits
Scan type : Progressive
Bits/(Pixel*Frame) : 0.388
Stream size : 20.2 GiB (81%)
Language : English
Default : Yes
Forced : No
Audio #1
ID : 2
Format : AC-3
Format/Info : Audio Coding 3
Commercial name : Dolby Digital
Codec ID : A_AC3
Duration : 2 h 29 min
Bit rate mode : Constant
Bit rate : 384 kb/s
Channel(s) : 6 channels
Channel layout : L R C LFE Ls Rs
Sampling rate : 48.0 kHz
Frame rate : 31.250 FPS (1536 SPF)
Compression mode : Lossy
Stream size : 412 MiB (2%)
Title : Russian Dub iTunes
Language : Russian
Service kind : Complete Main
Default : Yes
Forced : No
Audio #2
ID : 3
Format : AC-3
Format/Info : Audio Coding 3
Commercial name : Dolby Digital
Codec ID : A_AC3
Duration : 2 h 29 min
Bit rate mode : Constant
Bit rate : 384 kb/s
Channel(s) : 6 channels
Channel layout : L R C LFE Ls Rs
Sampling rate : 48.0 kHz
Frame rate : 31.250 FPS (1536 SPF)
Compression mode : Lossy
Stream size : 412 MiB (2%)
Title : Ukrainian Dub iTunes
Language : Ukrainian
Service kind : Complete Main
Default : No
Forced : No
Audio #3
ID : 4
Format : MLP FBA 16-ch
Format/Info : Meridian Lossless Packing FBA with 16-channel presentation
Commercial name : Dolby TrueHD with Dolby Atmos
Codec ID : A_TRUEHD
Duration : 2 h 29 min
Bit rate mode : Variable
Bit rate : 3 095 kb/s
Maximum bit rate : 4 590 kb/s
Channel(s) : 8 channels
Channel layout : L R C LFE Ls Rs Lb Rb
Sampling rate : 48.0 kHz
Frame rate : 1 200.000 FPS (40 SPF)
Compression mode : Lossless
Stream size : 3.24 GiB (13%)
Title : English Original TrueHD
Language : English
Default : No
Forced : No
Number of dynamic objects : 11
Bed channel count : 1 channel
Bed channel configuration : LFE
Audio #4
ID : 5
Format : AC-3
Format/Info : Audio Coding 3
Commercial name : Dolby Digital
Codec ID : A_AC3
Duration : 2 h 29 min
Bit rate mode : Constant
Bit rate : 448 kb/s
Channel(s) : 6 channels
Channel layout : L R C LFE Ls Rs
Sampling rate : 48.0 kHz
Frame rate : 31.250 FPS (1536 SPF)
Compression mode : Lossy
Stream size : 480 MiB (2%)
Title : English Original
Language : English
Service kind : Complete Main
Default : No
Forced : No
Text #1
ID : 6
Format : UTF-8
Codec ID : S_TEXT/UTF8
Codec ID/Info : UTF-8 Plain Text
Duration : 2 h 4 min
Bit rate : 9 b/s
Count of elements : 173
Stream size : 8.47 KiB (0%)
Title : Russian forced vol.1
Language : Russian
Default : Yes
Forced : No
Text #2
ID : 7
Format : UTF-8
Codec ID : S_TEXT/UTF8
Codec ID/Info : UTF-8 Plain Text
Duration : 1 h 56 min
Bit rate : 8 b/s
Count of elements : 154
Stream size : 7.50 KiB (0%)
Title : Russian forced vol.2
Language : Russian
Default : No
Forced : No
Text #3
ID : 8
Format : UTF-8
Codec ID : S_TEXT/UTF8
Codec ID/Info : UTF-8 Plain Text
Duration : 2 h 22 min
Bit rate : 48 b/s
Count of elements : 1676
Stream size : 50.7 KiB (0%)
Title : English full
Language : English
Default : No
Forced : No
Text #4
ID : 9
Format : UTF-8
Codec ID : S_TEXT/UTF8
Codec ID/Info : UTF-8 Plain Text
Duration : 2 h 23 min
Bit rate : 55 b/s
Count of elements : 2039
Stream size : 57.8 KiB (0%)
Title : English SDH
Language : English
Default : No
Forced : No
Menu
00:00:00.000 : en:Chapter 01
00:04:47.578 : en:Chapter 02
00:12:27.913 : en:Chapter 03
00:21:53.270 : en:Chapter 04
00:26:43.268 : en:Chapter 05
00:31:43.568 : en:Chapter 06
00:35:36.717 : en:Chapter 07
00:45:33.772 : en:Chapter 08
00:53:42.761 : en:Chapter 09
01:01:12.669 : en:Chapter 10
01:05:24.295 : en:Chapter 11
01:13:55.472 : en:Chapter 12
01:25:26.121 : en:Chapter 13
01:35:27.805 : en:Chapter 14
01:41:34.129 : en:Chapter 15
01:47:08.380 : en:Chapter 16
01:57:42.472 : en:Chapter 17
02:08:02.091 : en:Chapter 18
02:12:25.479 : en:Chapter 19
02:17:20.941 : en:Chapter 20

Скриншоты:

-

[Цитировать]

Топик был перенесен из форума Зарубежное кино (HD Video) в форум Зарубежные фильмы
Еrmоhа



Показать сообщения:    

Текущее время: 20-Сен 01:36

Часовой пояс: UTC + 6


Вы не можете начинать темы
Вы не можете отвечать на сообщения
Вы не можете редактировать свои сообщения
Вы не можете удалять свои сообщения
Вы не можете голосовать в опросах
Вы не можете прикреплять файлы к сообщениям
Вы не можете скачивать файлы

!ВНИМАНИЕ!
Сайт не предоставляет электронные версии произведений, а занимается лишь коллекционированием и каталогизацией ссылок, присылаемых и публикуемых на форуме нашими читателями. Если вы являетесь правообладателем какого-либо представленного материала и не желаете, чтобы ссылка на него находилась в нашем каталоге, свяжитесь с нами, и мы незамедлительно удалим ее. Файлы для обмена на трекере предоставлены пользователями сайта, и администрация не несет ответственности за их содержание. Просьба не заливать файлы, защищенные авторскими правами, а также файлы нелегального содержания!