***Уважаемые пользователи и гости !!! Сайт переехал на новый домен Torrents-club.info. Просьба изменить ваши закладки! ***
 
[ Сегодня идет свободное скачивание без начисления Download ]


Статистика раздачи
Нет
 
   
 
 
 
 
Стартрек: Возмездие / Star Trek Into Darkness (2013) BDRip [H.264/1080p-LQ] [IMAX Edition]
- Производство: США / Paramount Pictures
Жанр: фантастика, боевик, приключения
Режиссер: Джей Джей Абрамс
Продюсер: Джей Джей Абрамс, Брайан Берк, Алекс Куртцман
Актеры:
Крис Пайн, Закари Куинто, Бенедикт Камбербатч, Саймон Пегг, Карл Урбан, Зои Салдана, Элис Ив, Джон Чо, Антон Ельчин, Питер Уэллер
Описание:
Вернувшись на Землю, команда корабля «Энтерпрайз» обнаруживает, что деятельность и принципы их организации подорваны изнутри. Флот скован необъяснимым ужасом и бездействует, пока мир все глубже погружается в бездну.
Капитан Кирк берет на себя руководство операцией по поимке злодея, ответственного за этот хаос и способного уничтожить все человечество.
В запутанной игре не на жизнь, а на смерть, любовь и дружба будут принесены в жертву ради единственного, что осталось у Кирка — его команды.

Возраст: 12+ (зрителям, достигшим 12 лет)
Рейтинг MPAA: PG-13 (детям до 13 лет просмотр нежелателен)
Релиз от: LORDKILL
Продолжительность: 02:12:08
Качество: BDRip 1080p
Перевод: Дублированный
Субтитры: Русские (forced, full), английские
Видео: AVC/H.264, 1920x1080, 7441 Kbps
Аудио: AC3, 6 ch, 448 Kbps - Русский

Mediainfo:

x264 [info]: frame I:1265 Avg QP:16.28 size:162615
x264 [info]: frame P:53676 Avg QP:19.05 size: 70608
x264 [info]: frame B:135162 Avg QP:22.35 size: 24998
x264 [info]: consecutive B-frames: 6.4% 9.2% 11.9% 17.3% 17.0% 32.5% 4.5% 0.6% 0.4% 0.2% 0.1%
General
Unique ID : 40620143350431456462907223371943081519 (0x1E8F27B0DBA9AFA10B02EF6F4311762F)
Complete name : F:\ЗВЁЗДНЫЙ ПУТЬ (СТАРТРЕК)\02 - Стартрек. Возмездие (IMAX).mkv
Format : Matroska
Format version : Version 4
File size : 7.28 GiB
Duration : 2 h 12 min
Overall bit rate : 7 891 kb/s
Movie name : Стартрек: Возмездие / Star Trek Into Darkness (2013) (IMAX) - #LORDKILL#
Encoded date : UTC 2021-09-16 17:47:15
Writing application : mkvmerge v32.0.0 ('Astral Progressions') 64-bit
Writing library : libebml v1.3.7 + libmatroska v1.5.0
Video
ID : 1
Format : AVC
Format/Info : Advanced Video Codec
Format profile : High@L4.1
Format settings : CABAC / 4 Ref Frames
Format settings, CABAC : Yes
Format settings, Reference : 4 frames
Codec ID : V_MPEG4/ISO/AVC
Duration : 2 h 12 min
Bit rate : 7 441 kb/s
Width : 1 920 pixels
Height : 1 080 pixels
Display aspect ratio : 16:9
Frame rate mode : Constant
Frame rate : 23.976 (24000/1001) FPS
Color space : YUV
Chroma subsampling : 4:2:0
Bit depth : 8 bits
Scan type : Progressive
Bits/(Pixel*Frame) : 0.150
Stream size : 6.87 GiB (94%)
Writing library : x264 core 160 r3000 33f9e14
Encoding settings : cabac=1 / ref=4 / deblock=1:-2:-2 / analyse=0x3:0x113 / me=umh / subme=10 / psy=1 / psy_rd=1.00:0.20 / mixed_ref=1 / me_range=32 / chroma_me=1 / trellis=2 / 8x8dct=1 / cqm=0 / deadzone=21,11 / fast_pskip=0 / chroma_qp_offset=-3 / threads=24 / lookahead_threads=6 / sliced_threads=0 / nr=0 / decimate=1 / interlaced=0 / bluray_compat=0 / constrained_intra=0 / bframes=10 / b_pyramid=2 / b_adapt=2 / b_bias=0 / direct=1 / weightb=1 / open_gop=0 / weightp=2 / keyint=240 / keyint_min=23 / scenecut=40 / intra_refresh=0 / rc=crf / mbtree=0 / crf=21.5 / qcomp=0.60 / qpmin=0 / qpmax=69 / qpstep=4 / ip_ratio=1.40 / pb_ratio=1.30 / aq=1:1.00
Default : Yes
Forced : No
Audio
ID : 2
Format : AC-3
Format/Info : Audio Coding 3
Commercial name : Dolby Digital
Codec ID : A_AC3
Duration : 2 h 12 min
Bit rate mode : Constant
Bit rate : 448 kb/s
Channel(s) : 6 channels
Channel layout : L R C LFE Ls Rs
Sampling rate : 48.0 kHz
Frame rate : 31.250 FPS (1536 SPF)
Compression mode : Lossy
Stream size : 423 MiB (6%)
Title : Дубляж
Language : Russian
Service kind : Complete Main
Default : Yes
Forced : No
Text #1
ID : 3
Format : UTF-8
Codec ID : S_TEXT/UTF8
Codec ID/Info : UTF-8 Plain Text
Duration : 51 min 37 s
Bit rate : 1 b/s
Count of elements : 15
Stream size : 708 Bytes (0%)
Title : Forced
Language : Russian
Default : No
Forced : Yes
Text #2
ID : 4
Format : UTF-8
Codec ID : S_TEXT/UTF8
Codec ID/Info : UTF-8 Plain Text
Duration : 2 h 2 min
Bit rate : 100 b/s
Count of elements : 1395
Stream size : 90.1 KiB (0%)
Language : Russian
Default : No
Forced : No
Text #3
ID : 5
Format : UTF-8
Codec ID : S_TEXT/UTF8
Codec ID/Info : UTF-8 Plain Text
Duration : 2 h 1 min
Bit rate : 66 b/s
Count of elements : 1742
Stream size : 59.0 KiB (0%)
Language : English
Default : No
Forced : No
Text #4
ID : 6
Format : UTF-8
Codec ID : S_TEXT/UTF8
Codec ID/Info : UTF-8 Plain Text
Duration : 2 h 2 min
Bit rate : 71 b/s
Count of elements : 1974
Stream size : 64.4 KiB (0%)
Language : English
Default : No
Forced : No
Menu
00:00:00.000 : en:Chapter 1
00:10:20.369 : en:Chapter 2
00:19:21.493 : en:Chapter 3
00:30:03.968 : en:Chapter 4
00:40:09.115 : en:Chapter 5
00:46:05.262 : en:Chapter 6
00:56:38.228 : en:Chapter 7
01:06:35.783 : en:Chapter 8
01:12:55.662 : en:Chapter 9
01:22:45.752 : en:Chapter 10
01:30:54.740 : en:Chapter 11
01:38:36.368 : en:Chapter 12
01:47:09.548 : en:Chapter 13
01:54:17.141 : en:Chapter 14
01:59:20.653 : en:Chapter 15
02:03:18.307 : en:Chapter 16
Скриншоты:
-

[Цитировать]



Показать сообщения:    

Текущее время: 08-Дек 03:51

Часовой пояс: UTC + 6


Вы не можете начинать темы
Вы не можете отвечать на сообщения
Вы не можете редактировать свои сообщения
Вы не можете удалять свои сообщения
Вы не можете голосовать в опросах
Вы не можете прикреплять файлы к сообщениям
Вы не можете скачивать файлы

!ВНИМАНИЕ!
Сайт не предоставляет электронные версии произведений, а занимается лишь коллекционированием и каталогизацией ссылок, присылаемых и публикуемых на форуме нашими читателями. Если вы являетесь правообладателем какого-либо представленного материала и не желаете, чтобы ссылка на него находилась в нашем каталоге, свяжитесь с нами, и мы незамедлительно удалим ее. Файлы для обмена на трекере предоставлены пользователями сайта, и администрация не несет ответственности за их содержание. Просьба не заливать файлы, защищенные авторскими правами, а также файлы нелегального содержания!