***Уважаемые пользователи и гости !!! Сайт переехал на новый домен Torrents-club.info. Просьба изменить ваши закладки! ***
 
[ Сегодня идет свободное скачивание без начисления Download ]


Статистика раздачи
Скачал: [ 2 ]
 
   
 
 
 
 
Опасный попутчик (Потерявшиеся на солнце) / Lost in the Sun Год выпуска: 2015
Жанр: Боевик, триллер, драма
Выпущено: США, Floren Shieh Productions
Продолжительность: 01:35:26
Режиссер: Трей Нельсон
В ролях:
Дебора Эбботт, Джейсон Эдвард Грэхэм, Ребекка Чалив, Бо Смит, Пол Най, Майкл Энтони Джексон, Джун Гриффин Гарсиа, Эмма Фурманн, Кристин М. Миллер, Милинда Ройер, Тимоти Фолл, Линн Коллинз, Брайан Элдер, Лизе Росс, Стивен Линдсей, Аль Хэйтер, Ларри Дотсон, Джош Уиггинс
О фильме:
Главных героев фильма зовут Джон и Луис. Один — аферист и мошенник, второй — недавно осиротевший мальчик. Знакомятся они как раз на похоронах матери последнего. Мальчик теперь должен отправиться жить к своим бабушке и дедушке, но путь неблизкий, и Джон решает подбросить мальчишку. Ему все равно по пути. Но где Джон, там и проблемы…По пути герой должен разобраться со своими делами, но попутно он еще и находит новые. Он понятие не имеет, как это — думать не только о себе, но теперь с ним Луис и нельзя подвергать его жизнь опасности. Джон должен отдать долг людям, с которыми лучше не шутить. Но денег у него нет, зато в карманах мужчины находят адрес, где живет семья Луиса. Джон не может допустить, чтобы из-за его ошибок пострадали эти люди. Даже если в процессе ему придется погибнуть ради спасения мальчишки.

Качество: BDRip 1080p
Перевод: Дублированный
Субтитры: Английские
Видео: MPEG-4 AVC, 11.8 Мбит/с, 1920x804
Аудио: Русский (AC3, 6 ch, 384 Кбит/с), английский (AC3, 6 ch, 640 Кбит/с)

MediaInfo:

Complete name : Opasnyiy.poputchik.2015.BDRip.1080p.ELEKTRI4KA.UNIONGANG.mkv
Format : Matroska
Format version : Version 4
File size : 8.56 GiB
Duration : 1 h 35 min
Overall bit rate : 12.8 Mb/s
Movie name : Opasnyiy.poputchik.2015.BDRip.1080p.ELEKTRI4KA.UNIONGANG.
Encoded date : UTC 2021-09-20 22:09:30
Writing application : mkvmerge v8.3.0 ('Over the Horizon') 32bit
Writing library : libebml v1.3.1 + libmatroska v1.4.2
Video
ID : 1
Format : AVC
Format/Info : Advanced Video Codec
Format profile : High@L4.1
Format settings : CABAC / 5 Ref Frames
Format settings, CABAC : Yes
Format settings, Reference frames : 5 frames
Codec ID : V_MPEG4/ISO/AVC
Duration : 1 h 35 min
Bit rate : 11.8 Mb/s
Width : 1 920 pixels
Height : 804 pixels
Display aspect ratio : 2.40:1
Frame rate mode : Constant
Frame rate : 23.976 (24000/1001) FPS
Color space : YUV
Chroma subsampling : 4:2:0
Bit depth : 8 bits
Scan type : Progressive
Bits/(Pixel*Frame) : 0.319
Stream size : 7.88 GiB (92%)
Writing library : x264 core 142 r2431+42 c69a006 tMod [8-bit@all X86_64]
Encoding settings : cabac=1 / ref=5 / deblock=1:-3:-3 / analyse=0x3:0x133 / me=umh / subme=11 / psy=1 / fade_compensate=0.00 / psy_rd=0.90:0.00 / mixed_ref=1 / me_range=32 / chroma_me=1 / trellis=2 / 8x8dct=1 / cqm=0 / deadzone=21,11 / fast_pskip=0 / chroma_qp_offset=-2 / threads=12 / lookahead_threads=2 / sliced_threads=0 / nr=0 / decimate=0 / interlaced=0 / bluray_compat=0 / constrained_intra=0 / fgo=0 / bframes=8 / b_pyramid=2 / b_adapt=2 / b_bias=0 / direct=3 / weightb=1 / open_gop=0 / weightp=2 / keyint=240 / keyint_min=23 / scenecut=40 / intra_refresh=0 / rc_lookahead=60 / rc=crf / mbtree=0 / crf=17.5000 / qcomp=0.60 / qpmin=0:0:0 / qpmax=69:69:69 / qpstep=4 / vbv_maxrate=40000 / vbv_bufsize=30000 / crf_max=0.0 / nal_hrd=none / filler=0 / ip_ratio=1.40 / pb_ratio=1.30 / aq=1:0.90 / aq-sensitivity=10.00 / aq-factor=1.00:1.00:1.00 / aq2=0 / aq3=0
Language : English
Default : Yes
Forced : No
Audio #1
ID : 2
Format : AC-3
Format/Info : Audio Coding 3
Commercial name : Dolby Digital
Codec ID : A_AC3
Duration : 1 h 35 min
Bit rate mode : Constant
Bit rate : 384 kb/s
Channel(s) : 6 channels
Channel layout : L R C LFE Ls Rs
Sampling rate : 48.0 kHz
Frame rate : 31.250 FPS (1536 SPF)
Compression mode : Lossy
Stream size : 262 MiB (3%)
Title : DUB (iTnes)
Language : Russian
Service kind : Complete Main
Default : Yes
Forced : Yes
Audio #2
ID : 3
Format : AC-3
Format/Info : Audio Coding 3
Commercial name : Dolby Digital
Codec ID : A_AC3
Duration : 1 h 35 min
Bit rate mode : Constant
Bit rate : 640 kb/s
Channel(s) : 6 channels
Channel layout : L R C LFE Ls Rs
Sampling rate : 48.0 kHz
Frame rate : 31.250 FPS (1536 SPF)
Compression mode : Lossy
Stream size : 437 MiB (5%)
Title : Original
Language : English
Service kind : Complete Main
Default : No
Forced : No
Text
ID : 4
Format : UTF-8
Codec ID : S_TEXT/UTF8
Codec ID/Info : UTF-8 Plain Text
Duration : 1 h 28 min
Bit rate : 44 b/s
Count of elements : 1090
Stream size : 28.7 KiB (0%)
Language : English
Default : Yes
Forced : No
Menu
00:00:00.000 : en:Chapter 01
00:03:59.739 : en:Chapter 02
00:10:46.604 : en:Chapter 03
00:18:35.906 : en:Chapter 04
00:23:51.721 : en:Chapter 05
00:30:17.941 : en:Chapter 06
00:34:59.680 : en:Chapter 07
00:42:24.458 : en:Chapter 08
00:47:25.175 : en:Chapter 09
00:54:21.716 : en:Chapter 10
00:59:55.008 : en:Chapter 11
01:05:44.315 : en:Chapter 12
01:11:56.353 : en:Chapter 13
01:18:22.572 : en:Chapter 14
01:23:39.097 : en:Chapter 15
01:30:19.997 : en:Chapter 16
01:35:25.928 : en:Chapter 17

Скриншоты

[Цитировать]



Показать сообщения:    

Текущее время: 08-Дек 03:33

Часовой пояс: UTC + 6


Вы не можете начинать темы
Вы не можете отвечать на сообщения
Вы не можете редактировать свои сообщения
Вы не можете удалять свои сообщения
Вы не можете голосовать в опросах
Вы не можете прикреплять файлы к сообщениям
Вы не можете скачивать файлы

!ВНИМАНИЕ!
Сайт не предоставляет электронные версии произведений, а занимается лишь коллекционированием и каталогизацией ссылок, присылаемых и публикуемых на форуме нашими читателями. Если вы являетесь правообладателем какого-либо представленного материала и не желаете, чтобы ссылка на него находилась в нашем каталоге, свяжитесь с нами, и мы незамедлительно удалим ее. Файлы для обмена на трекере предоставлены пользователями сайта, и администрация не несет ответственности за их содержание. Просьба не заливать файлы, защищенные авторскими правами, а также файлы нелегального содержания!