***Уважаемые пользователи и гости !!! Сайт переехал на новый домен Torrents-club.info. Просьба изменить ваши закладки! ***
 
[ Сегодня идет свободное скачивание без начисления Download ]


Статистика раздачи
Скачал: [ 1 ]
 
   
 
 
 
 
Одна ночь в Бангкоке / One Night in Bangkok- Производство: США / Grindstone Entertainment Group
Жанр: Боевик, триллер, драма, криминал
Продолжительность: 01:44:47
Режиссер: Вич Каосаянанда
Актеры:
Марк Дакаскос, Vanida Golten, Принья Интачай, Майкл С. Нью, Кейн Косуги, Сахайак Бунтханакит, Джули Кондра, Shivam Pawa, Siripon Yuktadatta, Чарли Рюдпоканон
Описание:
Кай Кахале приезжает в Бангкок, чтобы решить неотложные дела. Он хочет как можно быстрее со всем разобраться и покинуть неприятный ему город. Но в одиночку провернуть сложное дело будет крайне непросто, поэтому он обращается с выгодным предложением к симпатичной девушке. Она работает таксистом и остро нуждается в деньгах. Кай предлагает ей стать на целую ночь его персональным водителем. От нее требуется хранить молчание и хладнокровие. Все дело в том, что герой собирается наказать бандитов, которые испортили жизнь семье его дочери. В обмен на услугу он предлагает девушке крупную сумму денег.

Рейтинг MPAA: R (лицам до 17 лет обязательно присутствие взрослого)
Дата мировой премьеры: 25 августа 2020
Релиз от: ELEKTRI4KA
Качество видео: WEB-DL (Amazon)
Перевод: Дублированный (ТК Пятница)
Субтитры: Английские
Видео: AVC/H.264, 1920x800, ~5577 Kbps
Аудио #1: AC3, 2 ch, 192 Kbps - Русский
Аудио #2: E-AC3, 6 ch, 640 Kbps - Английский

MediaInfo:

Общее
Уникальный идентификатор : 246296708790613957205102853891820452374 (0xB94B054A646EBAAABA88DD5F91ED7A16)
Полное имя : D:\NNM\Одна ночь в Бангкоке\One.Night.in.Bangkok.2020.WEB-DL.1080p-LQ.mkv
Формат : Matroska
Версия формата : Version 4
Размер файла : 4,69 Гбайт
Продолжительность : 1 ч. 44 м.
Общий поток : 6 412 Кбит/сек
Название фильма : Odna.noch.v.Bangkoke.2020.1080p.AMZN.WEB-DL.1080p.ELEKTRI4KA.UNIONGANG.
Дата кодирования : UTC 2021-09-26 13:18:50
Программа кодирования : mkvmerge v8.3.0 ('Over the Horizon') 32bit
Библиотека кодирования : libebml v1.3.1 + libmatroska v1.4.2
Видео
Идентификатор : 1
Формат : AVC
Формат/Информация : Advanced Video Codec
Профиль формата : High@L4
Настройки формата : CABAC / 4 Ref Frames
Параметр CABAC формата : Да
Параметр RefFrames формата : 4 кадра
Идентификатор кодека : V_MPEG4/ISO/AVC
Продолжительность : 1 ч. 44 м.
Вид битрейта : Постоянный
Битрейт : 5 577 Кбит/сек
Номинальный битрейт : 10 000 Кбит/сек
Ширина : 1 920 пикселей
Высота : 800 пикселей
Соотношение сторон : 2,40:1
Режим частоты кадров : Постоянный
Частота кадров : 23,976 (24000/1001) кадра/сек
Цветовое пространство : YUV
Субдискретизация насыщенности : 4:2:0
Битовая глубина : 8 бит
Тип развёртки : Прогрессивная
Бит/(Пиксели*Кадры) : 0.151
Размер потока : 4,08 Гбайт (87%)
Default : Да
Forced : Нет
Цветовой диапазон : Limited
Основные цвета : BT.709
Характеристики трансфера : BT.709
Коэффициенты матрицы : BT.709
Аудио #1
Идентификатор : 2
Формат : AC-3
Формат/Информация : Audio Coding 3
Коммерческое название : Dolby Digital
Идентификатор кодека : A_AC3
Продолжительность : 1 ч. 44 м.
Вид битрейта : Постоянный
Битрейт : 192 Кбит/сек
Каналы : 2 канала
Channel layout : L R
Частота : 48,0 КГц
Частота кадров : 31,250 кадров/сек (1536 SPF)
Метод сжатия : С потерями
Размер потока : 144 Мбайт (3%)
Заголовок : DUB
Язык : Russian
Service kind : Complete Main
Default : Да
Forced : Да
Аудио #2
Идентификатор : 3
Формат : E-AC-3
Формат/Информация : Enhanced AC-3
Коммерческое название : Dolby Digital Plus
Идентификатор кодека : A_EAC3
Продолжительность : 1 ч. 44 м.
Вид битрейта : Постоянный
Битрейт : 640 Кбит/сек
Каналы : 6 каналов
Channel layout : L R C LFE Ls Rs
Частота : 48,0 КГц
Частота кадров : 31,250 кадров/сек (1536 SPF)
Метод сжатия : С потерями
Размер потока : 480 Мбайт (10%)
Язык : English
Service kind : Complete Main
Default : Нет
Forced : Нет
Текст #1
Идентификатор : 4
Формат : UTF-8
Идентификатор кодека : S_TEXT/UTF8
Идентификатор кодека/Информация : UTF-8 Plain Text
Продолжительность : 1 ч. 38 м.
Битрейт : 33 бит/сек
Count of elements : 914
Размер потока : 24,4 Кбайт (0%)
Язык : English
Default : Нет
Forced : Нет
Текст #2
Идентификатор : 5
Формат : UTF-8
Идентификатор кодека : S_TEXT/UTF8
Идентификатор кодека/Информация : UTF-8 Plain Text
Продолжительность : 1 ч. 42 м.
Битрейт : 35 бит/сек
Count of elements : 1056
Размер потока : 26,6 Кбайт (0%)
Заголовок : SDH
Язык : English
Default : Нет
Forced : Нет
Скриншоты:

[Цитировать]



Показать сообщения:    

Текущее время: 08-Дек 04:05

Часовой пояс: UTC + 6


Вы не можете начинать темы
Вы не можете отвечать на сообщения
Вы не можете редактировать свои сообщения
Вы не можете удалять свои сообщения
Вы не можете голосовать в опросах
Вы не можете прикреплять файлы к сообщениям
Вы не можете скачивать файлы

!ВНИМАНИЕ!
Сайт не предоставляет электронные версии произведений, а занимается лишь коллекционированием и каталогизацией ссылок, присылаемых и публикуемых на форуме нашими читателями. Если вы являетесь правообладателем какого-либо представленного материала и не желаете, чтобы ссылка на него находилась в нашем каталоге, свяжитесь с нами, и мы незамедлительно удалим ее. Файлы для обмена на трекере предоставлены пользователями сайта, и администрация не несет ответственности за их содержание. Просьба не заливать файлы, защищенные авторскими правами, а также файлы нелегального содержания!