***Уважаемые пользователи и гости !!! Сайт переехал на новый домен Torrents-club.info. Просьба изменить ваши закладки! ***
 
[ Сегодня идет свободное скачивание без начисления Download ]


Статистика раздачи
Нет
 
   
 
 
 
 
Апокалипсис / Apocalypto (2006) BDRemux 1080p Год выпуска: 2006
Жанр: Приключения, боевик, исторический, драма
Выпущено: США, Icon Entertainmnet International, Icon Productions, Touchstone Pictures
Продолжительность: 02:18:21
Режиссер: Мэл Гибсон
В ролях:
Руди Янблад, Далия Эрнандез, Джонатан Брюэр, Моррис Бердйеллоухэд, Карлос Эмилио Баез, Рамирез Амилкар, Израэл Контрерас, Израэль Риос, Мария Изабель Диаз, Эспиридион Акоста Кэш
О фильме:
В фильме показана жизнь цивилизации майя до прихода испанских конкистадоров: жестокие войны с соседними племенами, человеческие жертвоприношения, загадочные мистические ритуалы. В один день рушится мир индейца по имени Лапа Ягуара. Его деревню захватывает соседнее племя, уничтожая хижины, забирая местных жителей в плен. Его ведут в город, чтобы принести в жертву богам. Перед лицом неминуемой смерти Лапа Ягуара должен побороть свои самые сильные страхи и совершить отчаянный рывок, чтобы спасти то, что ему дорого…

Качество: Blu-Ray Remux 1080p
Перевод: Профессиональный многоголосый, профессиональный двухголосый, авторский
Субтитры: Русские, английские, украинские
Видео: MPEG-4 AVC, 23873 Кбит/с, 1920x1080, 23.976 кадр/с
Аудио: Русский (DTS-HD HR, 6 ch, 3840 Кбит/с), (DTS, 6 ch, 755 Кбит/с), (AC3, 6 ch, 448 Кбит/с), (AC3, 6 ch, 384 Кбит/с), (AC3, 2 ch, 192 Кбит/с), украинский (AC3, 2 ch, 192 Кбит/с), язык майя (DTS-HD MA, 6 ch, 4396 Кбит/с), (AC3, 6 ch, 384 Кбит/с)
Аудио1: Русский DTS-HD High-Res 5.1 / 48 kHz / 3840 kbps / 24-bit (DTS Core: 5.1 / 48 kHz / 1509 kbps / 24-bit) - Профессиональный двухголосый (Гланц / Королёва)
Аудио2: Русский (DTS, 6 ch, 768 Кбит/с) - Профессиональный двухголосый (Гланц / Королёва)
Аудио3: Русский (AC3, 6 ch, 640 Кбит/с) - Профессиональный двухголосый (Гланц / Королёва)
Аудио4: Русский (AC3, 6 ch, 448 Кбит/с) - Профессиональный многоголосый (Позитив)
Аудио5: Русский (DTS, 6 ch, 755 Кбит/с) - Авторский (Строев)
Аудио6: Русский (DTS, 6 ch, 755 Кбит/с) - Авторский (Рябов)
Аудио7: Русский (AC3, 6 ch, 640 Кбит/с) - Авторский (Королёв)
Аудио8: Русский (AC3, 6 ch, 448 Кбит/с) - Авторский (Живов)
Аудио9: Русский (AC3, 2 ch, 192 Кбит/с) - Авторский (Гаврилов)
Аудио10: Украинский (AC3, 2 ch, 192 Кбит/с) - Профессиональный многоголосый
Аудио11: Майя DTS-HD MA, 6 ch, 4396 Кбит/с - Язык майя
Аудио12: Майя (AC3, 6 ch, 384 Кбит/с) - Язык майя
Главы: есть

MediaInfo:

General
Unique ID : 252003432061213114841506127440712854251 (0xBD9618788DC38ED1D7D2E6EC12886AEB)
Complete name : D:\Downloads\Апокалипсис.BDRemux.mkv
Format : Matroska
Format version : Version 4
File size : 36.1 GiB
Duration : 2 h 18 min
Overall bit rate mode : Variable
Overall bit rate : 37.3 Mb/s
Movie name : Апокалипсис.BDRemux/thx:SPOMOPS
Encoded date : UTC 2021-09-26 12:40:24
Writing application : mkvmerge v25.0.0 ('Prog Noir') 64-bit
Writing library : libebml v1.3.6 + libmatroska v1.4.9
Video
ID : 1
Format : AVC
Format/Info : Advanced Video Codec
Format profile : High@L4.1
Format settings : CABAC / 3 Ref Frames
Format settings, CABAC : Yes
Format settings, RefFrames : 3 frames
Codec ID : V_MPEG4/ISO/AVC
Duration : 2 h 18 min
Bit rate mode : Variable
Bit rate : 23.9 Mb/s
Maximum bit rate : 40.0 Mb/s
Width : 1 920 pixels
Height : 1 080 pixels
Display aspect ratio : 16:9
Frame rate mode : Constant
Frame rate : 23.976 (24000/1001) FPS
Standard : NTSC
Color space : YUV
Chroma subsampling : 4:2:0
Bit depth : 8 bits
Scan type : Progressive
Bits/(Pixel*Frame) : 0.480
Stream size : 23.1 GiB (64%)
Title : MPEG-4 AVC, 23873 Кбит/с, 1920x1080, 23.976 кадр/с
Language : English
Default : Yes
Forced : No
Color range : Limited
Color primaries : BT.709
Transfer characteristics : BT.709
Matrix coefficients : BT.709
Audio #1
ID : 2
Format : DTS XBR
Format/Info : Digital Theater Systems
Commercial name : DTS-HD High Resolution Audio
Codec ID : A_DTS
Duration : 2 h 18 min
Bit rate mode : Constant
Bit rate : 3 840 kb/s
Channel(s) : 6 channels
Channel layout : C L R Ls Rs LFE
Sampling rate : 48.0 kHz
Frame rate : 93.750 FPS (512 SPF)
Bit depth : 24 bits
Compression mode : Lossy
Stream size : 3.71 GiB (10%)
Title : Русский DTS-HD High-Res 5.1 / 48 kHz / 3840 kbps двухголосый, закадровый - Гланц / Королёва
Language : Russian
Default : Yes
Forced : Yes
Audio #2
ID : 3
Format : DTS
Format/Info : Digital Theater Systems
Codec ID : A_DTS
Duration : 2 h 18 min
Bit rate mode : Constant
Bit rate : 755 kb/s
Channel(s) : 6 channels
Channel layout : C L R Ls Rs LFE
Sampling rate : 48.0 kHz
Frame rate : 93.750 FPS (512 SPF)
Bit depth : 24 bits
Compression mode : Lossy
Stream size : 747 MiB (2%)
Title : Русский DTS; 754 Kbps профессиональный (двухголосый, закадровый - Гланц / Королёва)
Language : Russian
Default : No
Forced : No
Audio #3
ID : 4
Format : AC-3
Format/Info : Audio Coding 3
Commercial name : Dolby Digital
Codec ID : A_AC3
Duration : 2 h 18 min
Bit rate mode : Constant
Bit rate : 640 kb/s
Channel(s) : 6 channels
Channel layout : L R C LFE Ls Rs
Sampling rate : 48.0 kHz
Frame rate : 31.250 FPS (1536 SPF)
Bit depth : 16 bits
Compression mode : Lossy
Stream size : 633 MiB (2%)
Title : Русский AC3; 640 Kbps профессиональный (двухголосый, закадровый - Гланц / Королёва)
Language : Russian
Service kind : Complete Main
Default : No
Forced : No
Audio #4
ID : 5
Format : AC-3
Format/Info : Audio Coding 3
Commercial name : Dolby Digital
Codec ID : A_AC3
Duration : 2 h 18 min
Bit rate mode : Constant
Bit rate : 448 kb/s
Channel(s) : 6 channels
Channel layout : L R C LFE Ls Rs
Sampling rate : 48.0 kHz
Frame rate : 31.250 FPS (1536 SPF)
Bit depth : 16 bits
Compression mode : Lossy
Stream size : 443 MiB (1%)
Title : Русский АСЗ 448 - Профессиональный многоголосый (Позитив)
Language : Russian
Service kind : Complete Main
Default : No
Forced : No
Audio #5
ID : 6
Format : DTS
Format/Info : Digital Theater Systems
Codec ID : A_DTS
Duration : 2 h 18 min
Bit rate mode : Constant
Bit rate : 755 kb/s
Channel(s) : 6 channels
Channel layout : C L R Ls Rs LFE
Sampling rate : 48.0 kHz
Frame rate : 93.750 FPS (512 SPF)
Bit depth : 24 bits
Compression mode : Lossy
Stream size : 747 MiB (2%)
Title : Русский DTS; 754 Kbps авторский Строев
Language : Russian
Default : No
Forced : No
Audio #6
ID : 7
Format : DTS
Format/Info : Digital Theater Systems
Codec ID : A_DTS
Duration : 2 h 18 min
Bit rate mode : Constant
Bit rate : 755 kb/s
Channel(s) : 6 channels
Channel layout : C L R Ls Rs LFE
Sampling rate : 48.0 kHz
Frame rate : 93.750 FPS (512 SPF)
Bit depth : 24 bits
Compression mode : Lossy
Stream size : 747 MiB (2%)
Title : Русский DTS; 754 Kbps авторский Рябов
Language : Russian
Default : No
Forced : No
Audio #7
ID : 8
Format : AC-3
Format/Info : Audio Coding 3
Commercial name : Dolby Digital
Codec ID : A_AC3
Duration : 2 h 18 min
Bit rate mode : Constant
Bit rate : 640 kb/s
Channel(s) : 6 channels
Channel layout : L R C LFE Ls Rs
Sampling rate : 48.0 kHz
Frame rate : 31.250 FPS (1536 SPF)
Bit depth : 16 bits
Compression mode : Lossy
Stream size : 633 MiB (2%)
Title : Русский AC3; 640 Kbps авторский Королёв
Language : Russian
Service kind : Complete Main
Default : No
Forced : No
Audio #8
ID : 9
Format : AC-3
Format/Info : Audio Coding 3
Commercial name : Dolby Digital
Codec ID : A_AC3
Duration : 2 h 18 min
Bit rate mode : Constant
Bit rate : 448 kb/s
Channel(s) : 6 channels
Channel layout : L R C LFE Ls Rs
Sampling rate : 48.0 kHz
Frame rate : 31.250 FPS (1536 SPF)
Bit depth : 16 bits
Compression mode : Lossy
Stream size : 443 MiB (1%)
Title : Русский AC3; 448 Kbps авторский Живовов
Language : Russian
Service kind : Complete Main
Default : No
Forced : No
Audio #9
ID : 10
Format : AC-3
Format/Info : Audio Coding 3
Commercial name : Dolby Digital
Codec ID : A_AC3
Duration : 2 h 18 min
Bit rate mode : Constant
Bit rate : 192 kb/s
Channel(s) : 2 channels
Channel layout : L R
Sampling rate : 48.0 kHz
Frame rate : 31.250 FPS (1536 SPF)
Bit depth : 16 bits
Compression mode : Lossy
Stream size : 190 MiB (1%)
Title : Русский AC3; 192 Kbps авторский Гавриловов
Language : Russian
Service kind : Complete Main
Default : No
Forced : No
Audio #10
ID : 11
Format : AC-3
Format/Info : Audio Coding 3
Commercial name : Dolby Digital
Codec ID : A_AC3
Duration : 2 h 18 min
Bit rate mode : Constant
Bit rate : 192 kb/s
Channel(s) : 2 channels
Channel layout : L R
Sampling rate : 48.0 kHz
Frame rate : 31.250 FPS (1536 SPF)
Bit depth : 16 bits
Compression mode : Lossy
Stream size : 190 MiB (1%)
Title : Украинский АСЗ 192 - ПМ
Language : Ukrainian
Service kind : Complete Main
Default : No
Forced : No
Audio #11
ID : 12
Format : DTS XLL
Format/Info : Digital Theater Systems
Commercial name : DTS-HD Master Audio
Codec ID : A_DTS
Duration : 2 h 18 min
Bit rate mode : Variable
Bit rate : 4 396 kb/s
Channel(s) : 6 channels
Channel layout : C L R Ls Rs LFE
Sampling rate : 48.0 kHz
Frame rate : 93.750 FPS (512 SPF)
Bit depth : 24 bits
Compression mode : Lossless
Stream size : 4.25 GiB (12%)
Title : Майя DTS-HD.MA
Default : No
Forced : No
Audio #12
ID : 13
Format : AC-3
Format/Info : Audio Coding 3
Commercial name : Dolby Digital
Codec ID : A_AC3
Duration : 2 h 18 min
Bit rate mode : Constant
Bit rate : 384 kb/s
Channel(s) : 6 channels
Channel layout : L R C LFE Ls Rs
Sampling rate : 48.0 kHz
Frame rate : 31.250 FPS (1536 SPF)
Bit depth : 16 bits
Compression mode : Lossy
Stream size : 380 MiB (1%)
Title : Майя AC3; 384 Kbps
Service kind : Complete Main
Default : No
Forced : No
Text #1
ID : 14
Format : UTF-8
Codec ID : S_TEXT/UTF8
Codec ID/Info : UTF-8 Plain Text
Duration : 2 h 8 min
Bit rate : 17 b/s
Count of elements : 447
Stream size : 16.2 KiB (0%)
Title : Русские
Language : Russian
Default : No
Forced : No
Text #2
ID : 15
Format : UTF-8
Codec ID : S_TEXT/UTF8
Codec ID/Info : UTF-8 Plain Text
Duration : 2 h 8 min
Bit rate : 10 b/s
Count of elements : 447
Stream size : 10.1 KiB (0%)
Title : Английские
Language : English
Default : No
Forced : No
Text #3
ID : 16
Format : UTF-8
Codec ID : S_TEXT/UTF8
Codec ID/Info : UTF-8 Plain Text
Duration : 2 h 9 min
Bit rate : 17 b/s
Count of elements : 447
Stream size : 16.2 KiB (0%)
Title : Украинские
Language : Ukrainian
Default : No
Forced : No
Menu
00:00:00.000 : :Chapter 01
00:08:19.332 : :Chapter 02
00:13:03.741 : :Chapter 03
00:19:17.281 : :Chapter 04
00:23:09.721 : :Chapter 05
00:32:34.243 : :Chapter 06
00:37:45.179 : :Chapter 07
00:48:28.655 : :Chapter 08
00:56:39.145 : :Chapter 09
01:00:53.775 : :Chapter 10
01:09:15.109 : :Chapter 11
01:18:12.938 : :Chapter 12
01:23:15.782 : :Chapter 13
01:32:12.276 : :Chapter 14
01:43:07.723 : :Chapter 15
01:50:14.983 : :Chapter 16
01:57:45.683 : :Chapter 17
02:08:06.470 : :Chapter 18
02:09:49.239 : :Chapter 19
02:18:21.084 : :Chapter 20

Интересно

• Непрекращающиеся дожди в Мексике стали причиной переноса релиза картины с 4 марта 2006 на 8 декабря 2006.
• Из-за непредсказуемого климата Мексиканских лесов, дополнительной заботой съемочной команды была охрана цифрового оборудования от внезапных дождей. В случае же сильной жары, оно оборачивалось в специальные одеяла, способные отражать высокую температуру. Приходилось даже прикреплять термометры ко всем камерам. А во время съемки сцены на водопаде, они были помещены в специальные водозащитные сумки, разработанные Питом Романо.
• Во время съемок на водопаде, когда Лапа Ягуара убегает от охотников и спрыгивает вниз, самая настоящая корова, направляющаяся вверх по течению, перебежала через водопад. Лишь после того, как местный житель подплыл к корове и успокоил ее, она вернулась на берег и продолжила щипать траву, как ни в чем не бывало.
• Большая часть заметных ролей была разыграна потомками индейцев Майа, которые никогда в жизни до этого не снимались. Например, роль маленькой заболевшей девочки, которая проклинает охотников, отдали 7-летней жительнице деревни, которая сильно напоминает место, где жило племя Лапы Ягуара.
• В трейлере «Апокалипсиса» можно заметить немало персонажей, которые так и не появились в самой картине.
• Для сцены прыжка с водопада Руди Янблад самостоятельно исполнил опасный трюк. При помощи ремня безопасности, он совершил прыжок с 15-этажного здания в Веракрусе. Позже этот прыжок был наложен при помощи компьютера на кадры с настоящим водопадом.
• Во время кастинга для Мэла Гибсона и Фарада Сафиниа было важно выбрать актеров, подходящих для созданных персонажей. Так, Руди Янблад привлек Гибсона своим соответствием мифическому образцу героя.
• Когда Мэл Гибсон был подростком, один старший парень назвал его «Почти», что очень сильно оскорбило честолюбивого Мэла. Этот элемент уже режиссер Гибсон добавил в фильм: именно так называет героя Руди Янблада один из охотников.
• Герои говорят на юкатанском диалекте майя, фильм идет в кинотеатрах с субтитрами. Чтобы актеры могли освоить незнакомый язык, на котором им предстояло играть, в состав съемочной группы были включены специальные консультанты, проводившие уроки языка майя. Кроме того, каждый актер имел с собой плеер, чтобы постоянно прослушивать и заучивать свои реплики.
• Фильм снимался в Веракрусе и Катемако – одном из последних мест в Мексике, где еще сохранились участки тропического леса. В картине заняты исключительно представители коренного населения Америки, для большинства из которых это стало дебютом в кино. Чтобы подобрать актеров с соответствующей внешностью, кастинги проводились по всей Мексике, особенно на Юкатане, в Мехико и Оахаке. Часть будущих актеров нашли в других странах, в том числе США и Канаде. Далеко не все из них потомки майя, но все происходят из различных индейских племен, то есть являются коренными жителями континента.
• Прежде чем приступить к съемкам, режиссер Мел Гибсон и сценарист Фарад Сафиния в течение нескольких месяцев изучали тексты майя, в том числе и самый известный из них “Пополь-Вух”. Впоследствии Фарад Сафиния заметил: «Мы обнаружили, что проблемы, считавшиеся ключевыми для цивилизации майя, удивительным образом схожи с трудностями, которые встают сейчас перед нашей цивилизацией, особенно если речь заходит о повсеместном разрушении окружающей среды, чрезмерном потреблении и политической коррупции».
• Название фильма «Apocalypto» в русском прокате переведено некорректно. На самом деле это даже не английское слово, а греческий глагол, имеющий целый ряд значений: «показывать себя», «обнаруживать истину» и так далее.

Награды

Золотой орел, 2008 год
Номинации (1):
Лучший зарубежный фильм в российском прокате — «Централ Партнершип»
Оскар, 2007 год
Номинации (3):
Лучший звук
Лучший монтаж звука
Лучший грим
Золотой глобус, 2007 год
Номинации (1):
Лучший фильм на иностранном языке
Британская академия, 2007 год
Номинации (1):
Лучший фильм на иностранном языке
Сатурн, 2007 год
Номинации (2):
Лучший режиссер (Мэл Гибсон)
Лучший иностранный фильм

Скриншоты

[Цитировать]



Показать сообщения:    

Текущее время: 08-Дек 02:57

Часовой пояс: UTC + 6


Вы не можете начинать темы
Вы не можете отвечать на сообщения
Вы не можете редактировать свои сообщения
Вы не можете удалять свои сообщения
Вы не можете голосовать в опросах
Вы не можете прикреплять файлы к сообщениям
Вы не можете скачивать файлы

!ВНИМАНИЕ!
Сайт не предоставляет электронные версии произведений, а занимается лишь коллекционированием и каталогизацией ссылок, присылаемых и публикуемых на форуме нашими читателями. Если вы являетесь правообладателем какого-либо представленного материала и не желаете, чтобы ссылка на него находилась в нашем каталоге, свяжитесь с нами, и мы незамедлительно удалим ее. Файлы для обмена на трекере предоставлены пользователями сайта, и администрация не несет ответственности за их содержание. Просьба не заливать файлы, защищенные авторскими правами, а также файлы нелегального содержания!