***Уважаемые пользователи и гости !!! Сайт переехал на новый домен Torrents-club.info. Просьба изменить ваши закладки! ***
 
[ Сегодня идет свободное скачивание без начисления Download ]


Статистика раздачи
Нет
 
   
 
 
 
 
Форсаж: Коллекция / The Fast and the Furious: Collection (2001-2021) BDRip [H.264/1080p] - Год выпуска: 2001, 2003, 2006, 2009, 2011, 2013, 2015, 2017, 2021
Производство: США, Германия,Япония, Испания, Китай / Universal Pictures
Жанр: боевик, триллер, криминал
Режиссер: Роб Коэн, Джон Синглтон, Джастин Лин, Джеймс Ван, Ф. Гэри Грей
Актеры: Пол Уокер, Вин Дизель, Мишель Родригес, Джордана Брюстер, Мэтт Шульце, Рик Юн, Чэд Линдберг, Джонни Стронг, Тед Левайн, Том Бэрри
Описание:
Его зовут Брайан, и он — фанатик турбин и нитроускорителей. Его цель — быть принятым в автобанду легендарного Доминика Торетто, чемпиона опасных и незаконных уличных гонок. Но это лишь часть правды… Брайан также полицейский, имеющий задание войти в доверие к Торетто, подозреваемому в причастности к дерзким грабежам трейлеров, совершенным прямо «с колес».
Но чем больше доверяет нахальному новичку харизматичный Доминик, тем больше проникается герой идеалами «ангелов дорог». И тем меньше ему хочется выполнять свою миссию. И вот, наступает момент, когда Брайану придется выбирать между дружбой и долгом. И выбирать на скорости в 200 километров в час…
Продолжительность: 01:46:57 / 01:47:42 / 01:44:14 / 01:46:52 / 02:11:35 / 02:11:03 / 02:19:55 / 02:15:57 / 02:29:55
Качество видео: BDRip 1080p
Перевод: Дублированный, многоголосый профессиональный, двухголосый профессиональный
Субтитры: русские, английские
Видео: AVC/H.264, 1920x816 / 1920x800 / 1920x804, ~11-17.4 mbps
Аудио 1: AC3/DTS, 2/6 ch, 384 - 768 kbps, Русский
Аудио 2: AC3/DTS, 6 ch, 640/1509 kbps, Английский

Форсаж (2001)

Форсаж (2001) / The Fast and the Furious (2001) BDRip [H.264/1080p] - Производство: США, Германия / Universal
Жанр: боевик, триллер, криминал
Режиссер: Роб Коэн
Актёры: Пол Уокер, Вин Дизель, Мишель Родригес, Джордана Брюстер, Мэтт Шульце, Рик Юн, Чэд Линдберг, Джонни Стронг, Тед Левайн, Том Бэрри
Описание:
Его зовут Брайан, и он — фанатик турбин и нитроускорителей. Его цель — быть принятым в автобанду легендарного Доминика Торетто, чемпиона опасных и незаконных уличных гонок. Но это лишь часть правды… Брайан также полицейский, имеющий задание войти в доверие к Торетто, подозреваемому в причастности к дерзким грабежам трейлеров, совершенным прямо «с колес».
Но чем больше доверяет нахальному новичку харизматичный Доминик, тем больше проникается герой идеалами «ангелов дорог». И тем меньше ему хочется выполнять свою миссию. И вот, наступает момент, когда Брайану придется выбирать между дружбой и долгом. И выбирать на скорости в 200 километров в час…
Возраст: 16+ (зрителям, достигшим 16 лет)
Рейтинг MPAA: PG (детям до 13 лет просмотр не желателен)
Продолжительность: 01:46:57
Качество видео: BDRip 1080p
Перевод: Дублированный
Субтитры: русские, английские
Видео: AVC/H.264, 1920x816, ~16.7 mbps
Аудио 1: AC3, 6 ch, 384 kbps, Русский (DUB)
Аудио 2: DTS, 6 ch, 768 kbps, Русский (MVO Blu-ray CEE)
Аудио 3: AC3, 2 ch, 192 kbps, Русский (DVO Премьер Видео Фильм)
Аудио 4: DTS, 6 ch, 1509 kbps, Английский

MediaInfo:

Общее
Уникальный идентификатор : 200152896042058726410209238408218366822 (0x96940BAC11CC9B13AAF1463D3D215366)
Полное имя : D:\FILMS\Fast.&.Furious.Collection.1080p\Форсаж.2001.mkv
Формат : Matroska
Версия формата : Version 4
Размер файла : 14,6 Гбайт
Продолжительность : 1 ч. 46 м.
Общий поток : 19,5 Мбит/сек
Название фильма : The Fast and the Furious (2001) - Release for HDCLUB
Дата кодирования : UTC 2020-01-28 03:24:13
Программа кодирования : mkvmerge v8.2.0 ('World of Adventure') 64bit
Библиотека кодирования : libebml v1.3.1 + libmatroska v1.4.2
Обложка : Yes
Attachments : cover.jpg
Видео
Идентификатор : 1
Формат : AVC
Формат/Информация : Advanced Video Codec
Профиль формата : High@L4
Настройки формата : CABAC / 5 Ref Frames
Параметр CABAC формата : Да
Параметр RefFrames формата : 5 кадров
Идентификатор кодека : V_MPEG4/ISO/AVC
Продолжительность : 1 ч. 46 м.
Битрейт : 16,7 Мбит/сек
Ширина : 1920 пикселей
Высота : 816 пикселей
Соотношение сторон : 2,35:1
Режим частоты кадров : Постоянный
Частота кадров : 23,976 (24000/1001) кадра/сек
Цветовое пространство : YUV
Субдискретизация насыщенности : 4:2:0
Битовая глубина : 8 бит
Тип развёртки : Прогрессивная
Бит/(Пиксели*Кадры) : 0.444
Размер потока : 12,4 Гбайт (85%)
Заголовок : Release for HDCLUB
Библиотека кодирования : x264 core 132 r2309kMod 3b1f1f7
Настройки программы : cabac=1 / ref=5 / deblock=1:-3:-3 / analyse=0x3:0x133 / me=umh / subme=10 / psy=1 / fade_compensate=0.00 / psy_rd=1.13:0.00 / mixed_ref=1 / me_range=48 / chroma_me=1 / trellis=2 / 8x8dct=1 / cqm=0 / deadzone=21,11 / fast_pskip=0 / chroma_qp_offset=-2 / threads=12 / lookahead_threads=2 / sliced_threads=0 / nr=0 / decimate=1 / interlaced=0 / bluray_compat=0 / constrained_intra=0 / bframes=7 / b_pyramid=2 / b_adapt=2 / b_bias=0 / direct=3 / weightb=1 / open_gop=0 / weightp=2 / keyint=250 / keyint_min=23 / scenecut=40 / intra_refresh=0 / rc=crf / mbtree=0 / crf=17.0000 / qcomp=0.60 / qpmin=0 / qpmax=69 / qpstep=4 / ip_ratio=1.30 / pb_ratio=1.20 / aq=1:0.80
Язык : English
Default : Да
Forced : Нет
Аудио #1
Идентификатор : 2
Формат : AC-3
Формат/Информация : Audio Coding 3
Коммерческое название : Dolby Digital
Идентификатор кодека : A_AC3
Продолжительность : 1 ч. 46 м.
Вид битрейта : Постоянный
Битрейт : 384 Кбит/сек
Каналы : 6 каналов
ChannelLayout : L R C LFE Ls Rs
Частота : 48,0 КГц
Частота кадров : 31,250 кадров/сек (1536 SPF)
Метод сжатия : С потерями
Размер потока : 293 Мбайт (2%)
Заголовок : RUS Dub
Язык : Russian
ServiceKind/String : Complete Main
Default : Да
Forced : Нет
Аудио #2
Идентификатор : 3
Формат : DTS
Формат/Информация : Digital Theater Systems
Идентификатор кодека : A_DTS
Продолжительность : 1 ч. 46 м.
Вид битрейта : Постоянный
Битрейт : 768 Кбит/сек
Каналы : 6 каналов
ChannelLayout : C L R Ls Rs LFE
Частота : 48,0 КГц
Частота кадров : 93,750 кадра/сек (512 SPF)
Битовая глубина : 24 бит
Метод сжатия : С потерями
Размер потока : 587 Мбайт (4%)
Заголовок : MVO, Blu-ray CEE
Язык : Russian
Default : Нет
Forced : Нет
Аудио #3
Идентификатор : 4
Формат : AC-3
Формат/Информация : Audio Coding 3
Коммерческое название : Dolby Digital
Идентификатор кодека : A_AC3
Продолжительность : 1 ч. 46 м.
Вид битрейта : Постоянный
Битрейт : 192 Кбит/сек
Каналы : 2 канала
ChannelLayout : L R
Частота : 48,0 КГц
Частота кадров : 31,250 кадров/сек (1536 SPF)
Метод сжатия : С потерями
Размер потока : 147 Мбайт (1%)
Заголовок : DVO, Премьер Видео Фильм
Язык : Russian
ServiceKind/String : Complete Main
Default : Нет
Forced : Нет
Аудио #4
Идентификатор : 5
Формат : DTS
Формат/Информация : Digital Theater Systems
Идентификатор кодека : A_DTS
Продолжительность : 1 ч. 46 м.
Вид битрейта : Постоянный
Битрейт : 1509 Кбит/сек
Каналы : 6 каналов
ChannelLayout : C L R Ls Rs LFE
Частота : 48,0 КГц
Частота кадров : 93,750 кадра/сек (512 SPF)
Битовая глубина : 24 бит
Метод сжатия : С потерями
Размер потока : 1,13 Гбайт (8%)
Язык : English
Default : Нет
Forced : Нет
Текст #1
Идентификатор : 6
Формат : UTF-8
Идентификатор кодека : S_TEXT/UTF8
Идентификатор кодека/Информация : UTF-8 Plain Text
Продолжительность : 1 ч. 14 м.
Битрейт : 1 бит/сек
ElementCount : 16
Размер потока : 624 байт (0%)
Заголовок : captions
Язык : Russian
Default : Да
Forced : Нет
Текст #2
Идентификатор : 7
Формат : UTF-8
Идентификатор кодека : S_TEXT/UTF8
Идентификатор кодека/Информация : UTF-8 Plain Text
Продолжительность : 1 ч. 45 м.
Битрейт : 62 бит/сек
ElementCount : 834
Размер потока : 48,2 Кбайт (0%)
Язык : Russian
Default : Нет
Forced : Нет
Текст #3
Идентификатор : 8
Формат : UTF-8
Идентификатор кодека : S_TEXT/UTF8
Идентификатор кодека/Информация : UTF-8 Plain Text
Продолжительность : 1 ч. 38 м.
Битрейт : 43 бит/сек
ElementCount : 811
Размер потока : 31,0 Кбайт (0%)
Язык : English
Default : Нет
Forced : Нет
Меню
00:00:00.000 : en:The Hijackers
00:02:56.885 : en:Enter the Eclipse
00:10:20.244 : en:The Snowmans's Bet
00:15:07.531 : en:NOS Fest
00:26:40.473 : en:Big Trouble in Little Saigon
00:29:59.214 : en:Right to Party
00:34:42.872 : en:A Double Life
00:38:08.494 : en:A Ten-Second Car
00:44:56.402 : en:Undercover Blues
00:55:26.489 : en:A Quarter Mile at a Time
00:58:40.433 : en:Undercover Love
01:01:45.743 : en:The Takedown of Johnny Tran
01:09:25.119 : en:Race Wars
01:12:02.026 : en:Jesse Throws Down the Pink
01:15:23.685 : en:Mia's Choice
01:20:44.172 : en:Hijackers' Hell
01:29:59.811 : en:Fury in Echo Park
01:34:58.317 : en:Race Against the Train
01:38:05.462 : en:Honor
01:39:57.992 : en:End Titles
Скриншоты:

Двойной форсаж (2003)

Двойной форсаж (2003) / 2 Fast 2 Furious (2003) BDRip [H.264/1080p]- Производство: США / Universal
Жанр: боевик, триллер, криминал
Режиссер: Джон Синглтон
Актёры: Пол Уокер, Тайриз Гибсон, Ева Мендес, Коул Хаузер, Лудакрис, Том Бэрри, Джеймс Римар, Девон Аоки, Амори Ноласко, Майкл Или, Джин Онг, Эдвард Финлэй, Марк Бун Джуниор, Мэтт Галлини, Роберто 'Санс' Санчес, Эрик Этебари, Джон Ченатьемпо, Трой Браун, Кори Майкл Юбэнкс
Описание:
Бывший полицейский Брайан О`Коннер вместе с напарником Романом Пирсом собираются перевезти крупную сумму «грязных» денег известного мафиози Картера Верона в качестве его подручных. Но на самом деле эта работа является только прикрытием для Брайана, который вместе с тайным агентом Моникой Фуэнтес должны уличить изворотливого преступника…
Возраст: 16+ (зрителям, достигшим 16 лет)
Рейтинг MPAA: PG (детям до 13 лет просмотр не желателен)
Продолжительность: 01:47:36
Качество видео: BDRip 1080p
Перевод: Дублированный, двухголосый профессиональный
Субтитры: русские, английские
Видео: AVC/H.264, 1920x816, ~17.4 mbps
Аудио 1: AC3, 6 ch, 448 kbps, Русский (DUB)
Аудио 2: DTS, 6 ch, 768 kbps, Русский (DUB)
Аудио 3: DTS, 6 ch, 1510 kbps, Русский (DVO)
Аудио 4: DTS, 6 ch, 1509 kbps, Английский

MediaInfo:

Общее
Уникальный идентификатор : 181554552353398782188192176542588412201 (0x889622884393230A9ECCA6634B552129)
Полное имя : D:\FILMS\Fast.&.Furious.Collection.1080p\Двойной форсаж.2003.mkv
Формат : Matroska
Версия формата : Version 4
Размер файла : 16,3 Гбайт
Продолжительность : 1 ч. 47 м.
Общий поток : 21,7 Мбит/сек
Название фильма : 2 Fast 2 Furious (2003) - Release for HDCLUB
Дата кодирования : UTC 2020-01-28 04:43:14
Программа кодирования : mkvmerge v8.2.0 ('World of Adventure') 64bit
Библиотека кодирования : libebml v1.3.1 + libmatroska v1.4.2
Обложка : Yes
Attachments : cover.jpg
Видео
Идентификатор : 1
Формат : AVC
Формат/Информация : Advanced Video Codec
Профиль формата : High@L4
Настройки формата : CABAC / 5 Ref Frames
Параметр CABAC формата : Да
Параметр RefFrames формата : 5 кадров
Идентификатор кодека : V_MPEG4/ISO/AVC
Продолжительность : 1 ч. 47 м.
Битрейт : 17,4 Мбит/сек
Ширина : 1920 пикселей
Высота : 816 пикселей
Соотношение сторон : 2,35:1
Режим частоты кадров : Постоянный
Частота кадров : 23,976 (24000/1001) кадра/сек
Цветовое пространство : YUV
Субдискретизация насыщенности : 4:2:0
Битовая глубина : 8 бит
Тип развёртки : Прогрессивная
Бит/(Пиксели*Кадры) : 0.464
Размер потока : 13,1 Гбайт (80%)
Заголовок : Release for HDCLUB
Библиотека кодирования : x264 core 132 r2309kMod 3b1f1f7
Настройки программы : cabac=1 / ref=5 / deblock=1:-3:-3 / analyse=0x3:0x133 / me=umh / subme=10 / psy=1 / fade_compensate=0.00 / psy_rd=1.13:0.00 / mixed_ref=1 / me_range=48 / chroma_me=1 / trellis=2 / 8x8dct=1 / cqm=0 / deadzone=21,11 / fast_pskip=0 / chroma_qp_offset=-2 / threads=12 / lookahead_threads=2 / sliced_threads=0 / nr=0 / decimate=1 / interlaced=0 / bluray_compat=0 / constrained_intra=0 / bframes=7 / b_pyramid=2 / b_adapt=2 / b_bias=0 / direct=3 / weightb=1 / open_gop=0 / weightp=2 / keyint=250 / keyint_min=23 / scenecut=40 / intra_refresh=0 / rc=crf / mbtree=0 / crf=17.7500 / qcomp=0.60 / qpmin=0 / qpmax=69 / qpstep=4 / ip_ratio=1.30 / pb_ratio=1.20 / aq=1:0.80
Язык : English
Default : Да
Forced : Нет
Аудио #1
Идентификатор : 2
Формат : AC-3
Формат/Информация : Audio Coding 3
Коммерческое название : Dolby Digital
Идентификатор кодека : A_AC3
Продолжительность : 1 ч. 47 м.
Вид битрейта : Постоянный
Битрейт : 448 Кбит/сек
Каналы : 6 каналов
ChannelLayout : L R C LFE Ls Rs
Частота : 48,0 КГц
Частота кадров : 31,250 кадров/сек (1536 SPF)
Метод сжатия : С потерями
Размер потока : 345 Мбайт (2%)
Заголовок : RUS DUB AC3
Язык : Russian
ServiceKind/String : Complete Main
Default : Да
Forced : Нет
Аудио #2
Идентификатор : 3
Формат : DTS
Формат/Информация : Digital Theater Systems
Идентификатор кодека : A_DTS
Продолжительность : 1 ч. 47 м.
Вид битрейта : Постоянный
Битрейт : 768 Кбит/сек
Каналы : 6 каналов
ChannelLayout : C L R Ls Rs LFE
Частота : 48,0 КГц
Частота кадров : 93,750 кадра/сек (512 SPF)
Битовая глубина : 24 бит
Метод сжатия : С потерями
Размер потока : 591 Мбайт (4%)
Заголовок : RUS DUB DTS
Язык : Russian
Default : Нет
Forced : Нет
Аудио #3
Идентификатор : 4
Формат : DTS
Формат/Информация : Digital Theater Systems
Идентификатор кодека : A_DTS
Продолжительность : 1 ч. 47 м.
Вид битрейта : Постоянный
Битрейт : 1510 Кбит/сек
Каналы : 6 каналов
ChannelLayout : C L R Ls Rs LFE
Частота : 48,0 КГц
Частота кадров : 93,750 кадра/сек (512 SPF)
Битовая глубина : 24 бит
Метод сжатия : С потерями
Размер потока : 1,13 Гбайт (7%)
Заголовок : RUS DVO
Язык : Russian
Default : Нет
Forced : Нет
Аудио #4
Идентификатор : 5
Формат : DTS
Формат/Информация : Digital Theater Systems
Идентификатор кодека : A_DTS
Продолжительность : 1 ч. 47 м.
Вид битрейта : Постоянный
Битрейт : 1509 Кбит/сек
Каналы : 6 каналов
ChannelLayout : C L R Ls Rs LFE
Частота : 48,0 КГц
Частота кадров : 93,750 кадра/сек (512 SPF)
Битовая глубина : 24 бит
Метод сжатия : С потерями
Размер потока : 1,14 Гбайт (7%)
Заголовок : ENG
Язык : English
Default : Нет
Forced : Нет
Текст #1
Идентификатор : 6
Формат : UTF-8
Идентификатор кодека : S_TEXT/UTF8
Идентификатор кодека/Информация : UTF-8 Plain Text
Продолжительность : 1 ч. 36 м.
Битрейт : 0 бит/сек
ElementCount : 10
Размер потока : 384 байт (0%)
Заголовок : captions
Язык : Russian
Default : Да
Forced : Нет
Текст #2
Идентификатор : 7
Формат : UTF-8
Идентификатор кодека : S_TEXT/UTF8
Идентификатор кодека/Информация : UTF-8 Plain Text
Продолжительность : 1 ч. 39 м.
Битрейт : 76 бит/сек
ElementCount : 1069
Размер потока : 55,8 Кбайт (0%)
Язык : Russian
Default : Нет
Forced : Нет
Текст #3
Идентификатор : 8
Формат : UTF-8
Идентификатор кодека : S_TEXT/UTF8
Идентификатор кодека/Информация : UTF-8 Plain Text
Продолжительность : 1 ч. 39 м.
Битрейт : 46 бит/сек
ElementCount : 1070
Размер потока : 33,9 Кбайт (0%)
Язык : English
Default : Нет
Forced : Нет
Меню
00:00:00.000 : en:Time For Ignition
00:11:28.688 : en:Surprise!
00:14:19.817 : en:Busted
00:16:01.627 : en:In the Interest of Justice
00:18:56.344 : en:The Man For the Job
00:24:22.544 : en:Verone's New Drivers
00:28:15.819 : en:The Audition
00:35:13.153 : en:Hungry
00:40:07.322 : en:The Best of Everything
00:46:43.384 : en:Two More Cars
00:58:54.114 : en:A Little Fun
01:05:02.190 : en:Looking For Monica
01:10:24.303 : en:The Wrong Two Guys
01:13:37.038 : en:Guns, Murderers & Cops
01:22:14.638 : en:Let the Party Begin
01:29:53.138 : en:The New Plan
01:35:16.628 : en:Doing it Big
01:37:31.971 : en:Clean Records
01:40:32.026 : en:End Titles
Скриншоты:

Тройной форсаж: Токийский дрифт (2006)

Тройной форсаж: Токийский Дрифт (2006) / The Fast and the Furious: Tokyo Drift (2006) BDRip [H.264/1080p]-https://a.radikal.ru/a39/1907/4b/146d89656692.jpg[/img]
Производство: США, Германия, Япония / Universal
Жанр: боевик, триллер, криминал
Режиссер: Джастин Лин
Актёры: Лукас Блэк, Бау Вау, Сон Кан, Брайан Ти, Натали Келли, Брайан Гудман, Джейсон Дж. Тобин, Кейко Китагава, Закари Ти Брайан, Никки Гриффин, Брэндон Брендел, Дэниэл Буко, Дэвид Томас, Эмбер Стивенс, Ашика Гонья, Кристиан Салазар, Кевин Кайра, Трей Санфорд, Дэнни Рэй МакДональд II, Винсент Лареска, Джои Крамптон
Описание:
Шон Босуэлл — одинокий парень, который хочет казаться профи уличных гонок. Он бесшабашно гоняется по улицам города, пытаясь убежать от жизненных невзгод и наживая себе врагов среди местных властей. Когда Шону грозит тюрьма, его от греха подальше отсылают к отцу — профессиональному военному, который служит на военной базе в Японии.
В незнакомой стране, живущей по своим законам, Шон чувствует себя еще большим изгоем. Однако вскоре его американский приятель Твинки знакомит его с миром подпольного дрифт-рейсинга. Раньше Шон просто тупо гонялся по улицам, а здесь перед ним открылся целый мир своеобразного искусства из металла и резины, дороги которого оказались невообразимо круты на поворотах…
Возраст: 12+ (зрителям, достигшим 12 лет)
Рейтинг MPAA: PG (детям до 13 лет просмотр не желателен)
Продолжительность: 01:44:14
Качество видео: BDRip 1080p
Перевод: Дублированный
Субтитры: русские, английские
Видео: AVC/H.264, 1920x816, ~16.7 mbps
Аудио 1: AC3, 6 ch, 448 kbps, Русский (DUB)
Аудио 2: DTS, 6 ch, 1509 kbps, Английский

MediaInfo:

Общее
Уникальный идентификатор : 236825125653155720080798435641145463391 (0xB22ADC30077D18CBBD80D23A32BC925F)
Полное имя : D:\FILMS\Fast.&.Furious.Collection.1080p\Тройной форсаж. Токийский дрифт.2006.mkv
Формат : Matroska
Версия формата : Version 4
Размер файла : 13,6 Гбайт
Продолжительность : 1 ч. 44 м.
Общий поток : 18,6 Мбит/сек
Название фильма : The Fast and the Furious: Tokyo Drift (2006) - Release for HDCLUB by SbR
Дата кодирования : UTC 2020-01-28 05:01:47
Программа кодирования : mkvmerge v8.2.0 ('World of Adventure') 64bit
Библиотека кодирования : libebml v1.3.1 + libmatroska v1.4.2
Обложка : Yes
Attachments : xlog.txt / cover.jpg
Видео
Идентификатор : 1
Формат : AVC
Формат/Информация : Advanced Video Codec
Профиль формата : High@L4.1
Настройки формата : CABAC / 5 Ref Frames
Параметр CABAC формата : Да
Параметр RefFrames формата : 5 кадров
Идентификатор кодека : V_MPEG4/ISO/AVC
Продолжительность : 1 ч. 44 м.
Битрейт : 16,7 Мбит/сек
Ширина : 1920 пикселей
Высота : 816 пикселей
Соотношение сторон : 2,35:1
Режим частоты кадров : Постоянный
Частота кадров : 23,976 (24000/1001) кадра/сек
Цветовое пространство : YUV
Субдискретизация насыщенности : 4:2:0
Битовая глубина : 8 бит
Тип развёртки : Прогрессивная
Бит/(Пиксели*Кадры) : 0.444
Размер потока : 12,1 Гбайт (89%)
Заголовок : Release for HDCLUB
Библиотека кодирования : x264 core 140 r2377+40 929f149 tMod [8-bit@4:2:0 X86_64]
Настройки программы : cabac=1 / ref=5 / deblock=1:-2:-2 / analyse=0x3:0x113 / me=umh / subme=11 / psy=1 / fade_compensate=0.00 / psy_rd=1.00:0.00 / mixed_ref=1 / me_range=48 / chroma_me=1 / trellis=2 / 8x8dct=1 / cqm=0 / deadzone=21,11 / fast_pskip=1 / chroma_qp_offset=-2 / threads=12 / lookahead_threads=2 / sliced_threads=0 / nr=0 / decimate=1 / interlaced=0 / bluray_compat=0 / constrained_intra=0 / fgo=0 / bframes=8 / b_pyramid=2 / b_adapt=2 / b_bias=0 / direct=3 / weightb=1 / open_gop=0 / weightp=2 / keyint=250 / keyint_min=23 / scenecut=40 / intra_refresh=0 / rc_lookahead=60 / rc=crf / mbtree=0 / crf=17.5000 / qcomp=0.60 / qpmin=0:0:0 / qpmax=69:69:69 / qpstep=4 / vbv_maxrate=62500 / vbv_bufsize=78125 / crf_max=0.0 / nal_hrd=none / filler=0 / ip_ratio=1.40 / pb_ratio=1.30 / aq=4:0.80 / aq-sensitivity=11.00 / aq-factor=1.00:1.00:1.00 / aq2=1:0.60 / aq2-sensitivity=9.00 / aq2-factor=1.00:1.00:1.00 / aq3=1:[0.60:0.60]:[0.60:0.60]:[0.60:0.60]:[0.60:0.60] / aq3-sensitivity=10.00 / aq3-factor=[1.00:1.00]:[1.00:1.00]:[1.00:1.00] / aq3-boundary=192:64:24
Язык : English
Default : Да
Forced : Нет
Цветовой диапазон : Limited
Основные цвета : BT.709
Характеристики трансфера : BT.709
Коэффициенты матрицы : BT.709
Аудио #1
Идентификатор : 2
Формат : AC-3
Формат/Информация : Audio Coding 3
Коммерческое название : Dolby Digital
Идентификатор кодека : A_AC3
Продолжительность : 1 ч. 44 м.
Вид битрейта : Постоянный
Битрейт : 448 Кбит/сек
Каналы : 6 каналов
ChannelLayout : L R C LFE Ls Rs
Частота : 48,0 КГц
Частота кадров : 31,250 кадров/сек (1536 SPF)
Метод сжатия : С потерями
Размер потока : 334 Мбайт (2%)
Заголовок : Dub, Blu-ray CEE
Язык : Russian
ServiceKind/String : Complete Main
Default : Да
Forced : Нет
Аудио #2
Идентификатор : 3
Формат : DTS
Формат/Информация : Digital Theater Systems
Идентификатор кодека : A_DTS
Продолжительность : 1 ч. 44 м.
Вид битрейта : Постоянный
Битрейт : 1509 Кбит/сек
Каналы : 6 каналов
ChannelLayout : C L R Ls Rs LFE
Частота : 48,0 КГц
Частота кадров : 93,750 кадра/сек (512 SPF)
Битовая глубина : 24 бит
Метод сжатия : С потерями
Размер потока : 1,10 Гбайт (8%)
Язык : English
Default : Нет
Forced : Нет
Текст #1
Идентификатор : 4
Формат : UTF-8
Идентификатор кодека : S_TEXT/UTF8
Идентификатор кодека/Информация : UTF-8 Plain Text
Продолжительность : 1 ч. 38 м.
Битрейт : 0 бит/сек
ElementCount : 7
Размер потока : 224 байт (0%)
Заголовок : forced
Язык : Russian
Default : Да
Forced : Нет
Текст #2
Идентификатор : 5
Формат : UTF-8
Идентификатор кодека : S_TEXT/UTF8
Идентификатор кодека/Информация : UTF-8 Plain Text
Продолжительность : 1 ч. 37 м.
Битрейт : 48 бит/сек
ElementCount : 733
Размер потока : 34,3 Кбайт (0%)
Язык : Russian
Default : Нет
Forced : Нет
Текст #3
Идентификатор : 6
Формат : UTF-8
Идентификатор кодека : S_TEXT/UTF8
Идентификатор кодека/Информация : UTF-8 Plain Text
Продолжительность : 1 ч. 42 м.
Битрейт : 29 бит/сек
ElementCount : 810
Размер потока : 22,0 Кбайт (0%)
Язык : English
Default : Нет
Forced : Нет
Меню
00:00:00.000 : en:Main Titles
00:03:04.434 : en:Winner Take All
00:09:43.499 : en:Off the Streets
00:12:10.688 : en:Stick to the Rules
00:16:15.391 : en:First Day in Class
00:20:16.840 : en:My Ride
00:26:36.469 : en:DK Challenge
00:32:56.849 : en:No Choice
00:41:14.305 : en:Represent
00:46:34.833 : en:Trust & Character
00:52:55.255 : en:Feel It
00:58:20.121 : en:Drifting Fate
01:01:46.244 : en:Gaijin
01:05:50.488 : en:For Want
01:08:56.090 : en:It's What We Do
01:16:14.611 : en:My Mess
01:20:31.409 : en:Peaceful Resolution
01:26:53.249 : en:To the Finish
01:34:59.944 : en:An Old Friend
01:37:33.848 : en:End Titles
Скриншоты:

Форсаж 4 (2009)

Форсаж 4 (2009) / Fast and Furious (2009) BDRip [H.264/1080p]- Производство: США / Universal
Жанр: боевик, триллер, криминал
Режиссер: Джастин Лин
Актёры: Вин Дизель, Пол Уокер, Джордана Брюстер, Галь Гадот, Джон Ортис, Лас Алонсо, Мишель Родригес, Джек Конли, Шей Уигэм, Лиза Лапира
Описание:
Когда кривая дорожка заставляет скрывающегося от правосудия Дома Торетто вернуться в Лос-Анджелес, вражда с агентом Брайаном О’Коннером вспыхивает с новой силой. Но у парочки обнаруживается общий противник, и Дому с Брайаном приходится заключить перемирие в надежде одержать над ним победу. Грабя конвои, роя подкопы и пересекая границы, они приходят к идеальной форме отмщения — педали газа, вдавленной до упора.
Возраст: 16+ (зрителям, достигшим 16 лет)
Рейтинг MPAA: PG (детям до 13 лет просмотр не желателен)
Продолжительность: 01:46:52
Качество видео: BDRip 1080p
Перевод: Дублированный
Субтитры: русские, английские
Видео: AVC/H.264, 1920x800, ~16.6 mbps
Аудио 1: AC3, 6 ch, 448 kbps, Русский (DUB)
Аудио 2: DTS, 6 ch, 768 kbps, Русский (DUB)
Аудио 3: DTS, 6 ch, 1509 kbps, Английский

MediaInfo:

Общее
Уникальный идентификатор : 209047556363247958018616876811203635673 (0x9D451848C05106358E73949630BFE9D9)
Полное имя : D:\FILMS\Fast.&.Furious.Collection.1080p\Форсаж 4.2009.mkv
Формат : Matroska
Версия формата : Version 4
Размер файла : 14,5 Гбайт
Продолжительность : 1 ч. 46 м.
Общий поток : 19,4 Мбит/сек
Название фильма : Fast & Furious (2009) - Release for HDCLUB by SbR
Дата кодирования : UTC 2020-01-28 05:53:26
Программа кодирования : mkvmerge v8.2.0 ('World of Adventure') 64bit
Библиотека кодирования : libebml v1.3.1 + libmatroska v1.4.2
Обложка : Yes
Attachments : cover.jpg / xlog.txt
Видео
Идентификатор : 1
Формат : AVC
Формат/Информация : Advanced Video Codec
Профиль формата : High@L4.1
Настройки формата : CABAC / 5 Ref Frames
Параметр CABAC формата : Да
Параметр RefFrames формата : 5 кадров
Идентификатор кодека : V_MPEG4/ISO/AVC
Продолжительность : 1 ч. 46 м.
Битрейт : 16,6 Мбит/сек
Ширина : 1920 пикселей
Высота : 800 пикселей
Соотношение сторон : 2,40:1
Режим частоты кадров : Постоянный
Частота кадров : 23,976 (24000/1001) кадра/сек
Цветовое пространство : YUV
Субдискретизация насыщенности : 4:2:0
Битовая глубина : 8 бит
Тип развёртки : Прогрессивная
Бит/(Пиксели*Кадры) : 0.452
Размер потока : 12,4 Гбайт (86%)
Заголовок : Release for HDCLUB
Библиотека кодирования : x264 core 140 r2377+40 929f149 tMod [8-bit@4:2:0 X86_64]
Настройки программы : cabac=1 / ref=5 / deblock=1:-2:-2 / analyse=0x3:0x113 / me=umh / subme=11 / psy=1 / fade_compensate=0.00 / psy_rd=1.00:0.00 / mixed_ref=1 / me_range=48 / chroma_me=1 / trellis=2 / 8x8dct=1 / cqm=0 / deadzone=21,11 / fast_pskip=1 / chroma_qp_offset=-2 / threads=12 / lookahead_threads=3 / sliced_threads=0 / nr=0 / decimate=1 / interlaced=0 / bluray_compat=0 / constrained_intra=0 / fgo=0 / bframes=10 / b_pyramid=2 / b_adapt=2 / b_bias=0 / direct=3 / weightb=1 / open_gop=0 / weightp=2 / keyint=250 / keyint_min=23 / scenecut=40 / intra_refresh=0 / rc_lookahead=60 / rc=crf / mbtree=0 / crf=18.5000 / qcomp=0.70 / qpmin=0:0:0 / qpmax=69:69:69 / qpstep=4 / vbv_maxrate=62500 / vbv_bufsize=78125 / crf_max=0.0 / nal_hrd=none / filler=0 / ip_ratio=1.40 / pb_ratio=1.30 / aq=4:0.80 / aq-sensitivity=11.00 / aq-factor=1.00:1.00:1.00 / aq2=1:0.60 / aq2-sensitivity=9.00 / aq2-factor=1.00:1.00:1.00 / aq3=1:[0.60:0.60]:[0.60:0.60]:[0.60:0.60]:[0.60:0.60] / aq3-sensitivity=10.00 / aq3-factor=[1.00:1.00]:[1.00:1.00]:[1.00:1.00] / aq3-boundary=192:64:24
Язык : English
Default : Да
Forced : Нет
Цветовой диапазон : Limited
Основные цвета : BT.709
Характеристики трансфера : BT.709
Коэффициенты матрицы : BT.709
Аудио #1
Идентификатор : 2
Формат : AC-3
Формат/Информация : Audio Coding 3
Коммерческое название : Dolby Digital
Идентификатор кодека : A_AC3
Продолжительность : 1 ч. 46 м.
Вид битрейта : Постоянный
Битрейт : 448 Кбит/сек
Каналы : 6 каналов
ChannelLayout : L R C LFE Ls Rs
Частота : 48,0 КГц
Частота кадров : 31,250 кадров/сек (1536 SPF)
Метод сжатия : С потерями
Размер потока : 342 Мбайт (2%)
Заголовок : RUS DUB AC3
Язык : Russian
ServiceKind/String : Complete Main
Default : Да
Forced : Нет
Аудио #2
Идентификатор : 3
Формат : DTS
Формат/Информация : Digital Theater Systems
Идентификатор кодека : A_DTS
Продолжительность : 1 ч. 46 м.
Вид битрейта : Постоянный
Битрейт : 768 Кбит/сек
Каналы : 6 каналов
ChannelLayout : C L R Ls Rs LFE
Частота : 48,0 КГц
Частота кадров : 93,750 кадра/сек (512 SPF)
Битовая глубина : 24 бит
Метод сжатия : С потерями
Размер потока : 586 Мбайт (4%)
Заголовок : RUS DUB DTS
Язык : Russian
Default : Нет
Forced : Нет
Аудио #3
Идентификатор : 4
Формат : DTS
Формат/Информация : Digital Theater Systems
Идентификатор кодека : A_DTS
Продолжительность : 1 ч. 46 м.
Вид битрейта : Постоянный
Битрейт : 1509 Кбит/сек
Каналы : 6 каналов
ChannelLayout : C L R Ls Rs LFE
Частота : 48,0 КГц
Частота кадров : 93,750 кадра/сек (512 SPF)
Битовая глубина : 24 бит
Метод сжатия : С потерями
Размер потока : 1,13 Гбайт (8%)
Язык : English
Default : Нет
Forced : Нет
Текст #1
Идентификатор : 5
Формат : UTF-8
Идентификатор кодека : S_TEXT/UTF8
Идентификатор кодека/Информация : UTF-8 Plain Text
Продолжительность : 1 ч. 46 м.
Битрейт : 2 бит/сек
ElementCount : 43
Размер потока : 2,24 Кбайт (0%)
Заголовок : forced
Язык : Russian
Default : Да
Forced : Нет
Текст #2
Идентификатор : 6
Формат : UTF-8
Идентификатор кодека : S_TEXT/UTF8
Идентификатор кодека/Информация : UTF-8 Plain Text
Продолжительность : 1 ч. 37 м.
Битрейт : 53 бит/сек
ElementCount : 827
Размер потока : 38,2 Кбайт (0%)
Язык : Russian
Default : Нет
Forced : Нет
Текст #3
Идентификатор : 7
Формат : UTF-8
Идентификатор кодека : S_TEXT/UTF8
Идентификатор кодека/Информация : UTF-8 Plain Text
Продолжительность : 1 ч. 37 м.
Битрейт : 34 бит/сек
ElementCount : 787
Размер потока : 24,8 Кбайт (0%)
Язык : English
Default : Нет
Forced : Нет
Меню
00:00:00.000 : en:Game Time
00:07:26.529 : en:Ride Or Die
00:11:46.955 : en:Foot Pursuit
00:16:46.755 : en:Coming Home
00:24:24.087 : en:Back On The Scene
00:29:05.452 : en:Tuned-Up
00:34:05.293 : en:A Real Driver
00:37:30.790 : en:Muscle Beats Import
00:46:07.347 : en:Boss Os Bosses
00:53:37.380 : en:Along For The Ride
00:58:15.158 : en:High-Performance
01:04:49.218 : en:Spotted Together
01:07:29.879 : en:Food, Family, Friendship
01:12:01.859 : en:Just Business
01:14:46.523 : en:Primary Target
01:20:36.164 : en:Juisdiction Ends
01:25:03.264 : en:Ain't Forgiven
01:29:09.385 : en:Run For The Border
01:35:54.999 : en:Steet Pardon
01:39:24.957 : en:End Titles
Скриншоты:

Форсаж 5 (Extended Cut) (2011)

Форсаж 5 (2011) / Fast Five (2011) [Extended Cut] (2011) BDRip [H.264/1080p]- Производство: США / Universal
Жанр: боевик, триллер, криминал
Режиссер: Джастин Лин
Актёры: Вин Дизель, Пол Уокер, Джордана Брюстер, Дуэйн Джонсон, Тайриз Гибсон, Лудакрис, Мэтт Шульце, Сон Ган, Галь Гадот, Эльза Патаки
Описание:
Бывший полицейский Брайан О`Коннер вместе с бывалым лихачом Домиником Торетто совсем немного увлеклись жизнью вне закона. После того, как Брайан и Миа Торетто освободили Доминика, они не рискуют долго задерживаться на одном месте, так как являются желанной целью порядком недовольных копов.
Возраст: 16+ (зрителям, достигшим 16 лет)
Рейтинг MPAA: PG (детям до 13 лет просмотр не желателен)
Продолжительность: 02:11:35
Качество видео: BDRip 1080p
Перевод: Дублированный
Субтитры: русские (Forced на расширенные места), английские
Видео: AVC/H.264, 1920x816, ~14.7 mbps
Аудио 1: AC3, 6 ch, 448 kbps, Русский (DUB)
Аудио 2: DTS, 6 ch, 755 kbps, Русский (DUB)
Аудио 3: DTS, 6 ch, 1509 kbps, Английский

MediaInfo:

Общее
Уникальный идентификатор : 205562822326077884935354759352467312208 (0x9AA5F5A199564C4FB946D023DC4BCE50)
Полное имя : D:\FILMS\Fast.&.Furious.Collection.1080p\Форсаж 5.2011.mkv
Формат : Matroska
Версия формата : Version 4
Размер файла : 16,0 Гбайт
Продолжительность : 2 ч. 11 м.
Общий поток : 17,5 Мбит/сек
Название фильма : Fast Five (2011) - Release for HDCLUB
Дата кодирования : UTC 2020-01-28 07:00:17
Программа кодирования : mkvmerge v8.2.0 ('World of Adventure') 64bit
Библиотека кодирования : libebml v1.3.1 + libmatroska v1.4.2
Обложка : Yes
Attachments : cover.jpg
Видео
Идентификатор : 1
Формат : AVC
Формат/Информация : Advanced Video Codec
Профиль формата : High@L4.1
Настройки формата : CABAC / 5 Ref Frames
Параметр CABAC формата : Да
Параметр RefFrames формата : 5 кадров
Идентификатор кодека : V_MPEG4/ISO/AVC
Продолжительность : 2 ч. 11 м.
Битрейт : 14,7 Мбит/сек
Ширина : 1920 пикселей
Высота : 816 пикселей
Соотношение сторон : 2,35:1
Режим частоты кадров : Постоянный
Частота кадров : 23,976 (24000/1001) кадра/сек
Цветовое пространство : YUV
Субдискретизация насыщенности : 4:2:0
Битовая глубина : 8 бит
Тип развёртки : Прогрессивная
Бит/(Пиксели*Кадры) : 0.392
Размер потока : 13,5 Гбайт (84%)
Заголовок : Release for HDCLUB
Библиотека кодирования : x264 core 116 r2074kMod 2641b9e
Настройки программы : cabac=1 / ref=5 / deblock=1:-3:-3 / analyse=0x3:0x133 / me=tesa / subme=10 / psy=1 / fade_compensate=0.00 / psy_rd=1.20:0.10 / mixed_ref=1 / me_range=24 / chroma_me=1 / trellis=2 / 8x8dct=1 / cqm=0 / deadzone=21,11 / fast_pskip=0 / chroma_qp_offset=-3 / threads=6 / sliced_threads=0 / nr=0 / decimate=1 / interlaced=0 / bluray_compat=0 / constrained_intra=0 / bframes=6 / b_pyramid=2 / b_adapt=2 / b_bias=0 / direct=3 / weightb=1 / open_gop=0 / weightp=2 / keyint=250 / keyint_min=23 / scenecut=40 / intra_refresh=0 / rc_lookahead=100 / rc=2pass / mbtree=1 / bitrate=14743 / ratetol=1.0 / qcomp=0.60 / qpmin=0 / qpmax=69 / qpstep=4 / cplxblur=20.0 / qblur=0.5 / vbv_maxrate=50000 / vbv_bufsize=62500 / nal_hrd=none / ip_ratio=1.40 / aq=3:0.90
Язык : English
Default : Да
Forced : Нет
Аудио #1
Идентификатор : 2
Формат : AC-3
Формат/Информация : Audio Coding 3
Коммерческое название : Dolby Digital
Идентификатор кодека : A_AC3
Продолжительность : 2 ч. 11 м.
Вид битрейта : Постоянный
Битрейт : 448 Кбит/сек
Каналы : 6 каналов
ChannelLayout : L R C LFE Ls Rs
Частота : 48,0 КГц
Частота кадров : 31,250 кадров/сек (1536 SPF)
Метод сжатия : С потерями
Размер потока : 422 Мбайт (3%)
Заголовок : RUS DUB AC3
Язык : Russian
ServiceKind/String : Complete Main
Default : Да
Forced : Нет
Аудио #2
Идентификатор : 3
Формат : DTS
Формат/Информация : Digital Theater Systems
Идентификатор кодека : A_DTS
Продолжительность : 2 ч. 11 м.
Вид битрейта : Постоянный
Битрейт : 755 Кбит/сек
Каналы : 6 каналов
ChannelLayout : C L R Ls Rs LFE
Частота : 48,0 КГц
Частота кадров : 93,750 кадра/сек (512 SPF)
Битовая глубина : 24 бит
Метод сжатия : С потерями
Размер потока : 710 Мбайт (4%)
Заголовок : RUS DUB DTS
Язык : Russian
Default : Нет
Forced : Нет
Аудио #3
Идентификатор : 4
Формат : DTS
Формат/Информация : Digital Theater Systems
Идентификатор кодека : A_DTS
Продолжительность : 2 ч. 11 м.
Вид битрейта : Постоянный
Битрейт : 1509 Кбит/сек
Каналы : 6 каналов
ChannelLayout : C L R Ls Rs LFE
Частота : 48,0 КГц
Частота кадров : 93,750 кадра/сек (512 SPF)
Битовая глубина : 24 бит
Метод сжатия : С потерями
Размер потока : 1,39 Гбайт (9%)
Заголовок : ENG
Язык : English
Default : Нет
Forced : Нет
Текст #1
Идентификатор : 5
Формат : UTF-8
Идентификатор кодека : S_TEXT/UTF8
Идентификатор кодека/Информация : UTF-8 Plain Text
Продолжительность : 1 ч. 31 м.
Битрейт : 2 бит/сек
ElementCount : 30
Размер потока : 1,51 Кбайт (0%)
Заголовок : forced
Язык : Russian
Default : Да
Forced : Нет
Текст #2
Идентификатор : 6
Формат : UTF-8
Идентификатор кодека : S_TEXT/UTF8
Идентификатор кодека/Информация : UTF-8 Plain Text
Продолжительность : 2 ч. 4 м.
Битрейт : 61 бит/сек
ElementCount : 1290
Размер потока : 56,0 Кбайт (0%)
Язык : Russian
Default : Нет
Forced : Нет
Текст #3
Идентификатор : 7
Формат : UTF-8
Идентификатор кодека : S_TEXT/UTF8
Идентификатор кодека/Информация : UTF-8 Plain Text
Продолжительность : 2 ч. 4 м.
Битрейт : 39 бит/сек
ElementCount : 1152
Размер потока : 35,7 Кбайт (0%)
Язык : English
Default : Нет
Forced : Нет
Меню
00:00:00.000 : en:00:00:00.000
00:07:45.715 : en:00:07:45.715
00:17:29.465 : en:00:17:29.465
00:23:01.839 : en:00:23:01.839
00:28:21.575 : en:00:28:21.575
00:35:05.353 : en:00:35:05.353
00:40:56.037 : en:00:40:56.037
00:48:51.303 : en:00:48:51.303
00:55:29.993 : en:00:55:29.993
01:04:07.552 : en:01:04:07.552
01:11:42.256 : en:01:11:42.256
01:19:23.467 : en:01:19:23.467
01:23:33.800 : en:01:23:33.800
01:28:56.331 : en:01:28:56.331
01:32:57.489 : en:01:32:57.489
01:40:27.104 : en:01:40:27.104
01:48:14.530 : en:01:48:14.530
01:56:03.915 : en:01:56:03.915
02:00:29.013 : en:02:00:29.013
02:04:38.096 : en:02:04:38.096
Скриншоты:

Форсаж 6 (Extended Cut) (2013)

Форсаж 6 (2013) / Furious 6 (2013) BDRip [H.264/1080p] [Extended Cut] - Производство: США / Universal
Жанр: боевик, триллер, криминал
Режиссер: Джастин Лин
Актёры: Вин Дизель, Дуэйн Джонсон, Пол Уокер, Мишель Родригес, Люк Эванс, Джина Карано, Эльза Патаки, Джордана Брюстер, Санг Кенг, Галь Гадот, Тайриз Гибсон, Лудакрис
Описание:
После того как Доминик и Брайн побывали в Рио, где они ограбили и свергли империю вора в законе, их команда получила 100 миллионов, и наши герои оказались разбросаны по всему миру. Но их привычка вечно жить в бегах не даёт им покоя. Между тем, Хоббс отслеживал организацию смертельно опасных наёмников-водителей по двенадцати странам. Единственный способ остановить эту криминальную группу — это превзойти их на улицах, поэтому Хоббс просит Доминика собрать его элитную команду в Лондоне. За это он обещает полное помилование для Доминика и его друзей, чтобы они смогли наконец вернуться домой к своей семье.
Возраст: 12+ (зрителям, достигшим 12 лет)
Рейтинг MPAA: PG (детям до 13 лет просмотр не желателен)
Продолжительность: 02:11:03
Качество видео: BDRip 1080p
Перевод: Дублированный
Субтитры: русские, английские
Видео: AVC/H.264, 1920x816, ~14.5 mbps
Аудио 1: AC3, 6 ch, 448 kbps, Русский (DUB)
Аудио 2: DTS, 6 ch, 768 kbps, Русский (DUB)
Аудио 3: DTS, 6 ch, 1509 kbps, Английский

MediaInfo:

Общее
Уникальный идентификатор : 215628261806167627459869381784002476886 (0xA2387E1CCB5A5C169D54C36F72D5BB56)
Полное имя : D:\FILMS\Fast.&.Furious.Collection.1080p\Форсаж 6.2013.mkv
Формат : Matroska
Версия формата : Version 4
Размер файла : 15,7 Гбайт
Продолжительность : 2 ч. 11 м.
Общий поток : 17,2 Мбит/сек
Название фильма : Furious 6 (2013) - Release for HDCLUB
Дата кодирования : UTC 2020-01-28 08:41:32
Программа кодирования : mkvmerge v8.2.0 ('World of Adventure') 64bit
Библиотека кодирования : libebml v1.3.1 + libmatroska v1.4.2
Обложка : Yes
Attachments : cover.jpg
Видео
Идентификатор : 1
Формат : AVC
Формат/Информация : Advanced Video Codec
Профиль формата : High@L4.1
Настройки формата : CABAC / 5 Ref Frames
Параметр CABAC формата : Да
Параметр RefFrames формата : 5 кадров
Идентификатор кодека : V_MPEG4/ISO/AVC
Продолжительность : 2 ч. 11 м.
Битрейт : 14,5 Мбит/сек
Ширина : 1920 пикселей
Высота : 816 пикселей
Соотношение сторон : 2,35:1
Режим частоты кадров : Постоянный
Частота кадров : 23,976 (24000/1001) кадра/сек
Цветовое пространство : YUV
Субдискретизация насыщенности : 4:2:0
Битовая глубина : 8 бит
Тип развёртки : Прогрессивная
Бит/(Пиксели*Кадры) : 0.385
Размер потока : 13,3 Гбайт (84%)
Заголовок : Release for HDCLUB
Библиотека кодирования : x264 core 138 r2358kMod 9e941d1
Настройки программы : cabac=1 / ref=5 / deblock=1:-3:-3 / analyse=0x3:0x133 / me=umh / subme=10 / psy=1 / fade_compensate=0.00 / psy_rd=1.10:0.00 / mixed_ref=1 / me_range=24 / chroma_me=1 / trellis=2 / 8x8dct=1 / cqm=0 / deadzone=21,11 / fast_pskip=0 / chroma_qp_offset=-2 / threads=3 / lookahead_threads=1 / sliced_threads=0 / nr=0 / decimate=0 / interlaced=0 / bluray_compat=0 / constrained_intra=0 / bframes=7 / b_pyramid=2 / b_adapt=2 / b_bias=0 / direct=3 / weightb=1 / open_gop=0 / weightp=2 / keyint=250 / keyint_min=23 / scenecut=40 / intra_refresh=0 / rc_lookahead=60 / rc=crf / mbtree=0 / crf=17.7777 / qcomp=0.75 / qpmin=0 / qpmax=69 / qpstep=4 / vbv_maxrate=50000 / vbv_bufsize=62500 / crf_max=0.0 / nal_hrd=none / ip_ratio=1.30 / pb_ratio=1.20 / aq=3:0.60
Язык : English
Default : Да
Forced : Нет
Аудио #1
Идентификатор : 2
Формат : AC-3
Формат/Информация : Audio Coding 3
Коммерческое название : Dolby Digital
Идентификатор кодека : A_AC3
Продолжительность : 2 ч. 11 м.
Вид битрейта : Постоянный
Битрейт : 448 Кбит/сек
Каналы : 6 каналов
ChannelLayout : L R C LFE Ls Rs
Частота : 48,0 КГц
Частота кадров : 31,250 кадров/сек (1536 SPF)
Метод сжатия : С потерями
Размер потока : 420 Мбайт (3%)
Заголовок : RUS DUB AC3
Язык : Russian
ServiceKind/String : Complete Main
Default : Да
Forced : Нет
Аудио #2
Идентификатор : 3
Формат : DTS
Формат/Информация : Digital Theater Systems
Идентификатор кодека : A_DTS
Продолжительность : 2 ч. 11 м.
Вид битрейта : Постоянный
Битрейт : 768 Кбит/сек
Каналы : 6 каналов
ChannelLayout : C L R Ls Rs LFE
Частота : 48,0 КГц
Частота кадров : 93,750 кадра/сек (512 SPF)
Битовая глубина : 24 бит
Метод сжатия : С потерями
Размер потока : 720 Мбайт (4%)
Заголовок : RUS DUB DTS
Язык : Russian
Default : Нет
Forced : Нет
Аудио #3
Идентификатор : 4
Формат : DTS
Формат/Информация : Digital Theater Systems
Идентификатор кодека : A_DTS
Продолжительность : 2 ч. 11 м.
Вид битрейта : Постоянный
Битрейт : 1509 Кбит/сек
Каналы : 6 каналов
ChannelLayout : C L R Ls Rs LFE
Частота : 48,0 КГц
Частота кадров : 93,750 кадра/сек (512 SPF)
Битовая глубина : 24 бит
Метод сжатия : С потерями
Размер потока : 1,38 Гбайт (9%)
Заголовок : ENG
Язык : English
Default : Нет
Forced : Нет
Текст #1
Идентификатор : 5
Формат : UTF-8
Идентификатор кодека : S_TEXT/UTF8
Идентификатор кодека/Информация : UTF-8 Plain Text
Продолжительность : 2 ч. 9 м.
Битрейт : 1 бит/сек
ElementCount : 45
Размер потока : 1,78 Кбайт (0%)
Заголовок : forced
Язык : Russian
Default : Да
Forced : Нет
Текст #2
Идентификатор : 6
Формат : UTF-8
Идентификатор кодека : S_TEXT/UTF8
Идентификатор кодека/Информация : UTF-8 Plain Text
Продолжительность : 2 ч. 9 м.
Битрейт : 63 бит/сек
ElementCount : 1251
Размер потока : 59,9 Кбайт (0%)
Язык : Russian
Default : Нет
Forced : Нет
Текст #3
Идентификатор : 7
Формат : UTF-8
Идентификатор кодека : S_TEXT/UTF8
Идентификатор кодека/Информация : UTF-8 Plain Text
Продолжительность : 2 ч. 2 м.
Битрейт : 42 бит/сек
ElementCount : 1270
Размер потока : 38,6 Кбайт (0%)
Язык : English
Default : Нет
Forced : Нет
Текст #4
Идентификатор : 8
Формат : UTF-8
Идентификатор кодека : S_TEXT/UTF8
Идентификатор кодека/Информация : UTF-8 Plain Text
Продолжительность : 2 ч. 3 м.
Битрейт : 46 бит/сек
ElementCount : 1458
Размер потока : 42,0 Кбайт (0%)
Заголовок : SDH
Язык : English
Default : Нет
Forced : Нет
Меню
00:00:00.000 : en:00:00:00.000
00:04:21.011 : en:00:04:21.011
00:10:19.118 : en:00:10:19.118
00:15:35.268 : en:00:15:35.268
00:19:18.574 : en:00:19:18.574
00:24:32.721 : en:00:24:32.721
00:30:23.405 : en:00:30:23.405
00:36:28.478 : en:00:36:28.478
00:44:01.305 : en:00:44:01.305
00:50:50.255 : en:00:50:50.255
00:56:54.327 : en:00:56:54.327
01:04:54.057 : en:01:04:54.057
01:10:14.293 : en:01:10:14.293
01:19:13.457 : en:01:19:13.457
01:25:41.178 : en:01:25:41.178
01:34:53.771 : en:01:34:53.771
01:41:48.561 : en:01:41:48.561
01:48:31.838 : en:01:48:31.838
01:57:48.812 : en:01:57:48.812
02:03:04.418 : en:02:03:04.418
Скриншоты:

Форсаж 7 (Extended Cut) (2015)

Форсаж 7 (2015) / Furious Seven (2015) BDRip [H.264/1080p] [Extended Cut]- Производство: США / Universal
Жанр: боевик, триллер, криминал
Режиссер: Джеймс Ван
Актёры: Вин Дизель, Пол Уокер, Джейсон Стэйтем, Мишель Родригес, Дуэйн Джонсон, Тайриз Гибсон, Лудакрис, Натали Эммануэль, Джордана Брюстер, Курт Рассел
Описание:
Они покорили Токио и Рио, Лос-Анджелес и Лондон. Но мир больше не играет по их правилам. Зной арабских пустынь, неприлично высокие небоскребы, миллионы долларов на колесах и очень, очень знаменитый злодей. Скорость не знает границ.
Возраст: 16+ (зрителям, достигшим 16 лет)
Рейтинг MPAA: PG (детям до 13 лет просмотр не желателен)
Продолжительность: 02:19:55
Качество видео: BDRip 1080p
Перевод: Дублированный
Субтитры: русские, английские
Видео: AVC/H.264, 1920x800, ~14 mbps
Аудио 1: AC3, 6 ch, 448 kbps, Русский (DUB)
Аудио 2: DTS, 6 ch, 1509 kbps, Английский

MediaInfo:

Общее
Уникальный идентификатор : 175669653214382772993109587196858008529 (0x8428BE9A791316D7BB7A8DA0A80B03D1)
Полное имя : D:\FILMS\Fast.&.Furious.Collection.1080p\Форсаж 7.2015.mkv
Формат : Matroska
Версия формата : Version 4
Размер файла : 15,6 Гбайт
Продолжительность : 2 ч. 19 м.
Общий поток : 15,9 Мбит/сек
Название фильма : Furious 7 (2015) [Extended Cut] - Release for HDCLUB
Дата кодирования : UTC 2020-01-28 09:00:55
Программа кодирования : mkvmerge v8.2.0 ('World of Adventure') 64bit
Библиотека кодирования : libebml v1.3.1 + libmatroska v1.4.2
Обложка : Yes
Attachments : Cover.png
Видео
Идентификатор : 1
Формат : AVC
Формат/Информация : Advanced Video Codec
Профиль формата : High@L4.1
Настройки формата : CABAC / 5 Ref Frames
Параметр CABAC формата : Да
Параметр RefFrames формата : 5 кадров
Идентификатор кодека : V_MPEG4/ISO/AVC
Продолжительность : 2 ч. 19 м.
Битрейт : 14,0 Мбит/сек
Ширина : 1920 пикселей
Высота : 800 пикселей
Соотношение сторон : 2,40:1
Режим частоты кадров : Постоянный
Частота кадров : 23,976 (24000/1001) кадра/сек
Цветовое пространство : YUV
Субдискретизация насыщенности : 4:2:0
Битовая глубина : 8 бит
Тип развёртки : Прогрессивная
Бит/(Пиксели*Кадры) : 0.379
Размер потока : 13,6 Гбайт (88%)
Заголовок : Furious 7 (2015) [Extended Cut] - Release for HDCLUB
Библиотека кодирования : x264 core 142 r2431+42 c69a006 tMod [8-bit@all X86_64]
Настройки программы : cabac=1 / ref=5 / deblock=1:-3:-3 / analyse=0x3:0x133 / me=tesa / subme=11 / psy=1 / fade_compensate=0.00 / psy_rd=1.05:0.00 / mixed_ref=1 / me_range=32 / chroma_me=1 / trellis=2 / 8x8dct=1 / cqm=0 / deadzone=21,11 / fast_pskip=0 / chroma_qp_offset=-2 / threads=12 / lookahead_threads=2 / sliced_threads=0 / nr=0 / decimate=0 / interlaced=0 / bluray_compat=0 / constrained_intra=0 / fgo=0 / bframes=8 / b_pyramid=2 / b_adapt=2 / b_bias=0 / direct=3 / weightb=1 / open_gop=0 / weightp=2 / keyint=250 / keyint_min=23 / scenecut=40 / intra_refresh=0 / rc_lookahead=60 / rc=crf / mbtree=0 / crf=17.2000 / qcomp=0.70 / qpmin=0:0:0 / qpmax=69:69:69 / qpstep=4 / vbv_maxrate=62500 / vbv_bufsize=78125 / crf_max=0.0 / nal_hrd=none / filler=0 / ip_ratio=1.24 / pb_ratio=1.18 / aq=1:0.80 / aq-sensitivity=10.00 / aq-factor=1.00:1.00:1.00 / aq2=0 / aq3=0 / zones=26,588,crf=16.5/1500,5330,crf=16.5/8884,9219,crf=16.5/9754,9834,crf=16.5/11740,11750,crf=16.5/13618,16530,crf=16.5/20829,22988,crf=16.5/23025,23093,crf=16/23600,23956,crf=16.5/27115,27149,crf=16/35597,37259,crf=16.5/43911,43957,crf=16.5/44278,44343,crf=16.5/44409,44452,crf=16.5/44707,44791,crf=16.5/45029,49532,crf=16.5/58779,58813,crf=16/60061,62754,crf=16.5/62755,62837,crf=16/63353,63354,crf=16/63483,63624,crf=16.5/64644,64663,crf=16.5/64728,64763,crf=16.5/64971,64985,crf=16.5/66976,67030,crf=16.5/68613,71011,crf=16.5/71012,71032,crf=16/71033,71199,crf=16.5/71200,71206,crf=16/71207,72022,crf=16.5/72023,72043,crf=16/72044,73430,crf=16.5/73431,73435,crf=16/73436,73454,crf=16.5/73455,73463,crf=16/73464,75939,crf=16.5/75940,75949,crf=16/75950,77459,crf=16.5/77460,77475,crf=16/77476,80010,crf=16.5/80011,80020,crf=16/80021,89428,crf=16.5/93581,95344,crf=16.5/101589,101780,crf=16/105338,105371,crf=16.5/106920,107231,crf=16.5/108070,108148,crf=16/108248,108281,crf=16.5/108559,108656,crf=16.5/108913,108973,crf=16/109801,110160,crf=16.5/110348,110367,crf=16/110683,110686,crf=16.5/110776,111996,crf=16.5/112097,112200,crf=16.5/112708,112819,crf=16.5/113201,113418,crf=15/114669,114684,crf=16.5/115052,115116,crf=16.5/115140,115587,crf=16.5/115588,115604,crf=16/115605,118777,crf=16.5/124386,124471,crf=16.5/127302,130575,crf=16.3/140682,140733,crf=16.5/141638,152009,crf=16.5/152250,152620,crf=16.5/152735,161614,crf=16.5/161799,161810,crf=16.5/162273,162290,crf=16.5/162304,162318,crf=16.5/162355,162387,crf=16.5/162412,162443,crf=16.5/162498,162506,crf=16.5/162703,162728,crf=16.5/162729,163862,crf=16.5/164125,164188,crf=16.5/164286,164300,crf=16.5/164346,164600,crf=16.5/164649,164684,crf=16.5/164702,164780,crf=16.5/164846,164883,crf=16.5/164902,164930,crf=16.5/165021,165030,crf=16.5/166750,167010,crf=16.5/168719,168767,crf=16.5/169585,169601,crf=16.5/169702,169725,crf=16.5/170418,170459,crf=16.5/170495,170627,crf=16.5/170912,171062,crf=16.5/171089,171141,crf=16.5/171542,171599,crf=16.5/172013,172028,crf=16.5/171960,172028,crf=16.5/172850,172987,crf=16.5/173108,173122,crf=16.5/173456,173514,crf=16.5/173607,173637,crf=16.5/173649,173669,crf=16.5/173870,173950,crf=16.5/174739,174752,crf=16.5/175235,181688,crf=16.5/181689,181782,crf=20/181783,185743,crf=18/186541,186548,crf=16.5/186767,186835,crf=16.5/186888,186945,crf=16.5/187008,187018,crf=16.5/187229,187247,crf=16.5/187529,187532,crf=16.5/188060,189028,crf=18/189036,189059,crf=16.5/189060,201274,crf=21
Язык : English
Default : Да
Forced : Нет
Цветовой диапазон : Limited
Коэффициенты матрицы : BT.709
Аудио #1
Идентификатор : 2
Формат : AC-3
Формат/Информация : Audio Coding 3
Коммерческое название : Dolby Digital
Идентификатор кодека : A_AC3
Продолжительность : 2 ч. 19 м.
Вид битрейта : Постоянный
Битрейт : 448 Кбит/сек
Каналы : 6 каналов
ChannelLayout : L R C LFE Ls Rs
Частота : 48,0 КГц
Частота кадров : 31,250 кадров/сек (1536 SPF)
Метод сжатия : С потерями
Размер потока : 448 Мбайт (3%)
Заголовок : AC3 5.1 @ 448 kbps - DUB, Blu-ray CEE
Язык : Russian
ServiceKind/String : Complete Main
Default : Да
Forced : Нет
Аудио #2
Идентификатор : 3
Формат : DTS
Формат/Информация : Digital Theater Systems
Идентификатор кодека : A_DTS
Продолжительность : 2 ч. 19 м.
Вид битрейта : Постоянный
Битрейт : 1509 Кбит/сек
Каналы : 6 каналов
ChannelLayout : C L R Ls Rs LFE
Частота : 48,0 КГц
Частота кадров : 93,750 кадра/сек (512 SPF)
Битовая глубина : 24 бит
Метод сжатия : С потерями
Задержка видео : 11 мс.
Размер потока : 1,47 Гбайт (9%)
Заголовок : DTS 5.1 @ 1536 kbps
Язык : English
Default : Нет
Forced : Нет
Текст #1
Идентификатор : 4
Формат : UTF-8
Идентификатор кодека : S_TEXT/UTF8
Идентификатор кодека/Информация : UTF-8 Plain Text
Продолжительность : 2 ч. 14 м.
Битрейт : 2 бит/сек
ElementCount : 43
Размер потока : 2,33 Кбайт (0%)
Заголовок : Forced, Blu-ray CEE
Язык : Russian
Default : Да
Forced : Нет
Текст #2
Идентификатор : 5
Формат : UTF-8
Идентификатор кодека : S_TEXT/UTF8
Идентификатор кодека/Информация : UTF-8 Plain Text
Продолжительность : 2 ч. 19 м.
Битрейт : 67 бит/сек
ElementCount : 1417
Размер потока : 68,8 Кбайт (0%)
Заголовок : Blu-ray CEE
Язык : Russian
Default : Нет
Forced : Нет
Текст #3
Идентификатор : 6
Формат : UTF-8
Идентификатор кодека : S_TEXT/UTF8
Идентификатор кодека/Информация : UTF-8 Plain Text
Продолжительность : 2 ч. 10 м.
Битрейт : 49 бит/сек
ElementCount : 1669
Размер потока : 47,4 Кбайт (0%)
Заголовок : SDH
Язык : English
Default : Нет
Forced : Нет
Текст #4
Идентификатор : 7
Формат : UTF-8
Идентификатор кодека : S_TEXT/UTF8
Идентификатор кодека/Информация : UTF-8 Plain Text
Продолжительность : 2 ч. 10 м.
Битрейт : 60 бит/сек
ElementCount : 1669
Размер потока : 58,0 Кбайт (0%)
Заголовок : SDH-COLORED
Язык : English
Default : Нет
Forced : Нет
Меню
00:00:00.000 : en:00:00:00.000
00:04:39.946 : en:00:04:39.946
00:11:29.480 : en:00:11:29.480
00:16:39.290 : en:00:16:39.290
00:25:54.052 : en:00:25:54.052
00:33:43.897 : en:00:33:43.897
00:41:44.585 : en:00:41:44.585
00:46:41.006 : en:00:46:41.006
00:52:10.711 : en:00:52:10.711
01:02:31.414 : en:01:02:31.414
01:06:16.681 : en:01:06:16.681
01:14:16.869 : en:01:14:16.869
01:22:34.032 : en:01:22:34.032
01:33:21.137 : en:01:33:21.137
01:38:27.485 : en:01:38:27.485
01:45:40.084 : en:01:45:40.084
01:53:54.452 : en:01:53:54.452
01:58:31.062 : en:01:58:31.062
02:06:19.864 : en:02:06:19.864
02:11:31.175 : en:02:11:31.175
Скриншоты:

Форсаж 8 (2017)

Форсаж 8 (2017) / The Fate of the Furious (2017) BDRip [H.264/1080p]- Производство: Китай, США, Япония / Universal
Жанр: боевик, триллер, криминал
Режиссер: Ф. Гэри Грей
Актёры: Вин Дизель, Дуэйн Джонсон, Джейсон Стэйтем, Мишель Родригес, Тайриз Гибсон, Лудакрис, Натали Эммануэль, Курт Рассел, Скотт Иствуд, Шарлиз Терон
Описание:
Пристегните ремни — гонка продолжается. Гавана, Берлин, Нью-Йорк — для самой крутой команды в мире нет ничего невозможного, пока они вместе. Но когда на их пути окажется одна из самых красивых женщин на планете и по совместительству королева киберпреступности, дороги друзей разойдутся.
Возраст: 12+ (зрителям, достигшим 12 лет)
Рейтинг MPAA: PG (детям до 13 лет просмотр не желателен)
Продолжительность: 02:15:57
Качество видео: BDRip 1080p
Перевод: Дублированный
Субтитры: русские, английские
Видео: AVC/H.264, 1920x804, ~11 mbps
Аудио 1: AC3, 6 ch, 448 kbps, Русский (DUB)
Аудио 2: DTS, 6 ch, 768 kbps, Русский (DUB)
Аудио 3: AC3, 6 ch, 640 kbps, Английский
Аудио 4: DTS, 6 ch, 1509 kbps, Английский

MediaInfo:

Общее
Уникальный идентификатор : 244720458259643781175755655673126880949 (0xB81B7223A92DC8A9B8D46D3CF7B886B5)
Полное имя : D:\FILMS\Fast.&.Furious.Collection.1080p\Форсаж 8.2017.mkv
Формат : Matroska
Версия формата : Version 4
Размер файла : 13,6 Гбайт
Продолжительность : 2 ч. 15 м.
Общий поток : 14,4 Мбит/сек
Дата кодирования : UTC 2020-01-28 10:25:25
Программа кодирования : mkvmerge v8.2.0 ('World of Adventure') 64bit
Библиотека кодирования : libebml v1.3.1 + libmatroska v1.4.2
Видео
Идентификатор : 1
Формат : AVC
Формат/Информация : Advanced Video Codec
Профиль формата : High@L4.1
Настройки формата : CABAC / 5 Ref Frames
Параметр CABAC формата : Да
Параметр RefFrames формата : 5 кадров
Идентификатор кодека : V_MPEG4/ISO/AVC
Продолжительность : 2 ч. 15 м.
Битрейт : 11,0 Мбит/сек
Ширина : 1920 пикселей
Высота : 804 пикселя
Соотношение сторон : 2,40:1
Режим частоты кадров : Постоянный
Частота кадров : 23,976 (24000/1001) кадра/сек
Цветовое пространство : YUV
Субдискретизация насыщенности : 4:2:0
Битовая глубина : 8 бит
Тип развёртки : Прогрессивная
Бит/(Пиксели*Кадры) : 0.297
Размер потока : 10,4 Гбайт (77%)
Библиотека кодирования : x264 core 148 r2705 3f5ed56
Настройки программы : cabac=1 / ref=5 / deblock=1:-2:-2 / analyse=0x3:0x133 / me=umh / subme=11 / psy=1 / psy_rd=1.05:0.05 / mixed_ref=1 / me_range=32 / chroma_me=1 / trellis=2 / 8x8dct=1 / cqm=0 / deadzone=21,11 / fast_pskip=0 / chroma_qp_offset=-3 / threads=12 / lookahead_threads=2 / sliced_threads=0 / nr=0 / decimate=0 / interlaced=0 / bluray_compat=0 / constrained_intra=0 / bframes=8 / b_pyramid=2 / b_adapt=2 / b_bias=0 / direct=3 / weightb=1 / open_gop=0 / weightp=2 / keyint=240 / keyint_min=23 / scenecut=40 / intra_refresh=0 / rc_lookahead=50 / rc=2pass / mbtree=0 / bitrate=11000 / ratetol=1.0 / qcomp=0.60 / qpmin=0 / qpmax=69 / qpstep=4 / cplxblur=20.0 / qblur=0.5 / vbv_maxrate=50000 / vbv_bufsize=62500 / nal_hrd=none / filler=0 / ip_ratio=1.40 / pb_ratio=1.30 / aq=3:0.80
Язык : English
Default : Да
Forced : Нет
Аудио #1
Идентификатор : 2
Формат : AC-3
Формат/Информация : Audio Coding 3
Коммерческое название : Dolby Digital
Идентификатор кодека : A_AC3
Продолжительность : 2 ч. 15 м.
Вид битрейта : Постоянный
Битрейт : 448 Кбит/сек
Каналы : 6 каналов
ChannelLayout : L R C LFE Ls Rs
Частота : 48,0 КГц
Частота кадров : 31,250 кадров/сек (1536 SPF)
Метод сжатия : С потерями
Размер потока : 436 Мбайт (3%)
Заголовок : RUS DUB AC3
Язык : Russian
ServiceKind/String : Complete Main
Default : Да
Forced : Нет
Аудио #2
Идентификатор : 3
Формат : DTS
Формат/Информация : Digital Theater Systems
Идентификатор кодека : A_DTS
Продолжительность : 2 ч. 15 м.
Вид битрейта : Постоянный
Битрейт : 768 Кбит/сек
Каналы : 6 каналов
ChannelLayout : C L R Ls Rs LFE
Частота : 48,0 КГц
Частота кадров : 93,750 кадра/сек (512 SPF)
Битовая глубина : 24 бит
Метод сжатия : С потерями
Размер потока : 747 Мбайт (5%)
Заголовок : RUS DUB DTS
Язык : Russian
Default : Нет
Forced : Нет
Аудио #3
Идентификатор : 4
Формат : AC-3
Формат/Информация : Audio Coding 3
Коммерческое название : Dolby Digital
Идентификатор кодека : A_AC3
Продолжительность : 2 ч. 15 м.
Вид битрейта : Постоянный
Битрейт : 640 Кбит/сек
Каналы : 6 каналов
ChannelLayout : L R C LFE Ls Rs
Частота : 48,0 КГц
Частота кадров : 31,250 кадров/сек (1536 SPF)
Метод сжатия : С потерями
Размер потока : 622 Мбайт (4%)
Заголовок : ENG AC3
Язык : English
ServiceKind/String : Complete Main
Default : Нет
Forced : Нет
Аудио #4
Идентификатор : 5
Формат : DTS
Формат/Информация : Digital Theater Systems
Идентификатор кодека : A_DTS
Продолжительность : 2 ч. 15 м.
Вид битрейта : Постоянный
Битрейт : 1509 Кбит/сек
Каналы : 6 каналов
ChannelLayout : C L R Ls Rs LFE
Частота : 48,0 КГц
Частота кадров : 93,750 кадра/сек (512 SPF)
Битовая глубина : 24 бит
Метод сжатия : С потерями
Размер потока : 1,43 Гбайт (11%)
Заголовок : ENG DTS
Язык : English
Default : Нет
Forced : Нет
Текст #1
Идентификатор : 6
Формат : UTF-8
Идентификатор кодека : S_TEXT/UTF8
Идентификатор кодека/Информация : UTF-8 Plain Text
Продолжительность : 2 ч. 7 м.
Битрейт : 1 бит/сек
ElementCount : 43
Размер потока : 1,57 Кбайт (0%)
Заголовок : Forced
Язык : Russian
Default : Да
Forced : Нет
Текст #2
Идентификатор : 7
Формат : UTF-8
Идентификатор кодека : S_TEXT/UTF8
Идентификатор кодека/Информация : UTF-8 Plain Text
Продолжительность : 2 ч. 14 м.
Битрейт : 76 бит/сек
ElementCount : 1513
Размер потока : 75,9 Кбайт (0%)
Заголовок : Full
Язык : Russian
Default : Нет
Forced : Нет
Текст #3
Идентификатор : 8
Формат : UTF-8
Идентификатор кодека : S_TEXT/UTF8
Идентификатор кодека/Информация : UTF-8 Plain Text
Продолжительность : 2 ч. 4 м.
Битрейт : 59 бит/сек
ElementCount : 1841
Размер потока : 54,0 Кбайт (0%)
Заголовок : SDH
Язык : English
Default : Нет
Forced : Нет
Меню
00:00:00.000 : en:00:00:00.000
00:13:08.913 : en:00:13:08.913
00:20:30.771 : en:00:20:30.771
00:26:38.639 : en:00:26:38.639
00:32:26.778 : en:00:32:26.778
00:36:40.573 : en:00:36:40.573
00:43:35.613 : en:00:43:35.613
00:47:45.780 : en:00:47:45.780
00:56:00.732 : en:00:56:00.732
01:04:08.303 : en:01:04:08.303
01:09:08.061 : en:01:09:08.061
01:13:24.275 : en:01:13:24.275
01:21:25.714 : en:01:21:25.714
01:29:29.948 : en:01:29:29.948
01:35:12.457 : en:01:35:12.457
01:39:55.781 : en:01:39:55.781
01:45:00.711 : en:01:45:00.711
01:53:01.858 : en:01:53:01.858
02:01:51.262 : en:02:01:51.262
02:06:45.097 : en:02:06:45.097
Скриншоты:

Форсаж 9 (Directors Cut) (2021)

Форсаж 9 / F9 (2021) BDRip [H.264/1080p] «Fast Family Forever»- Производство: США, Таиланд, Канада / One Race Films, Original Film, Perfect Storm Entertainment, Roth/Kirschenbaum Films, Universal Pictures
Жанр: Боевик, триллер, криминал, приключения
Режиссер: Джастин Лин
Продюсер: Вин Дизель, Джеффри Киршенбаум, Джастин Лин
Актеры: Вин Дизель, Джон Сина, Тайриз Гибсон, Лудакрис, Джордана Брюстер, Натали Эммануэль, Мишель Родригес, Хелен Миррен, Шарлиз Терон, Майкл Рукер
Описание:
Доминик Торетто ведет спокойную жизнь вместе с Летти и сыном Брайаном, но новая опасность всегда где-то рядом. В этот раз Доминику придется встретиться с призраками прошлого, если он хочет спасти самых близких. Команда снова собирается вместе, чтобы предотвратить дерзкий план по захвату мира, который придумал самый опасный преступник и безбашенный водитель из всех, с кем они сталкивались ранее. Ситуация усложняется тем, что этот человек — брат Доминика Джейкоб, которого много лет назад изгнали из семьи.
Возраст: 12+ (зрителям, достигшим 12 лет)
Рейтинг MPAA: PG-13 (детям до 13 лет просмотр нежелателен)
Дата мировой премьеры: 19 мая 2021
Дата российской премьеры: 19 мая 2021, «UPI»
Продолжительность: 02:29:55
Качество видео: BDRip 1080p
Перевод: Дублированный (iTunes)
Субтитры: русские (Forced), английские (Full, SDH)
Видео: AVC/H.264, 1920x804, ~13.5 mbps
Аудио 1: AC3, 6 ch, 384 Kbps - Русский (Dub, iTunes)
Аудио 2: DTS, 6 ch, 1509 Kbps - Английский

MediaInfo:

Общее
Уникальный идентификатор : 93084157381000662027288380751262976193 (0x46075B4A73F68F56632A96CAD06308C1)
Полное имя : E:\FILMS\Fast.&.Furious.Collection.1080p\Форсаж 9. 2021.mkv
Формат : Matroska
Версия формата : Version 4
Размер файла : 16,1 Гбайт
Продолжительность : 2 ч. 29 м.
Общий поток : 15,4 Мбит/сек
Название фильма : F9 2021 DC BDRip
Дата кодирования : UTC 2021-10-08 01:47:36
Программа кодирования : mkvmerge v51.0.0 ('I Wish') 64-bit
Библиотека кодирования : libebml v1.4.0 + libmatroska v1.6.2
Видео
Идентификатор : 1
Формат : AVC
Формат/Информация : Advanced Video Codec
Профиль формата : High@L4.1
Настройки формата : CABAC / 5 Ref Frames
Параметр CABAC формата : Да
Параметр RefFrames формата : 5 кадров
Идентификатор кодека : V_MPEG4/ISO/AVC
Продолжительность : 2 ч. 29 м.
Битрейт : 13,5 Мбит/сек
Ширина : 1 920 пикселей
Высота : 804 пикселя
Соотношение сторон : 2,40:1
Режим частоты кадров : Постоянный
Частота кадров : 23,976 (24000/1001) кадра/сек
Цветовое пространство : YUV
Субдискретизация насыщенности : 4:2:0
Битовая глубина : 8 бит
Тип развёртки : Прогрессивная
Бит/(Пиксели*Кадры) : 0.365
Размер потока : 14,1 Гбайт (88%)
Заголовок : F9 (2021) DC
Библиотека кодирования : x264 core 163 r3059 b684ebe0
Настройки программы : cabac=1 / ref=5 / deblock=1:-3:-3 / analyse=0x3:0x133 / me=umh / subme=11 / psy=1 / psy_rd=1.05:0.00 / mixed_ref=1 / me_range=32 / chroma_me=1 / trellis=2 / 8x8dct=1 / cqm=0 / deadzone=21,11 / fast_pskip=0 / chroma_qp_offset=-2 / threads=25 / lookahead_threads=6 / sliced_threads=0 / nr=0 / decimate=0 / interlaced=0 / bluray_compat=0 / constrained_intra=0 / bframes=12 / b_pyramid=2 / b_adapt=2 / b_bias=0 / direct=3 / weightb=1 / open_gop=0 / weightp=2 / keyint=240 / keyint_min=24 / scenecut=40 / intra_refresh=0 / rc_lookahead=60 / rc=2pass / mbtree=0 / bitrate=13500 / ratetol=1.0 / qcomp=0.67 / qpmin=0 / qpmax=69 / qpstep=4 / cplxblur=20.0 / qblur=0.5 / vbv_maxrate=62500 / vbv_bufsize=78125 / nal_hrd=none / filler=0 / ip_ratio=1.30 / pb_ratio=1.20 / aq=3:0.75
Язык : English
Default : Да
Forced : Нет
Цветовой диапазон : Limited
Основные цвета : BT.709
Характеристики трансфера : BT.709
Коэффициенты матрицы : BT.709
Аудио #1
Идентификатор : 2
Формат : AC-3
Формат/Информация : Audio Coding 3
Коммерческое название : Dolby Digital
Идентификатор кодека : A_AC3
Продолжительность : 2 ч. 29 м.
Вид битрейта : Постоянный
Битрейт : 384 Кбит/сек
Каналы : 6 каналов
Channel layout : L R C LFE Ls Rs
Частота : 48,0 КГц
Частота кадров : 31,250 кадров/сек (1536 SPF)
Метод сжатия : С потерями
Размер потока : 412 Мбайт (2%)
Заголовок : Dub iTunes
Язык : Russian
Service kind : Complete Main
Default : Да
Forced : Нет
Аудио #2
Идентификатор : 3
Формат : DTS
Формат/Информация : Digital Theater Systems
Идентификатор кодека : A_DTS
Продолжительность : 2 ч. 29 м.
Вид битрейта : Постоянный
Битрейт : 1 509 Кбит/сек
Каналы : 6 каналов
Channel layout : C L R Ls Rs LFE
Частота : 48,0 КГц
Частота кадров : 93,750 кадра/сек (512 SPF)
Битовая глубина : 24 бит
Метод сжатия : С потерями
Размер потока : 1,58 Гбайт (10%)
Заголовок : Original
Язык : English
Default : Нет
Forced : Нет
Текст #1
Идентификатор : 4
Формат : UTF-8
Идентификатор кодека : S_TEXT/UTF8
Идентификатор кодека/Информация : UTF-8 Plain Text
Продолжительность : 2 ч. 4 м.
Битрейт : 9 бит/сек
Count of elements : 173
Размер потока : 8,47 Кбайт (0%)
Заголовок : forced
Язык : Russian
Default : Да
Forced : Да
Текст #2
Идентификатор : 5
Формат : UTF-8
Идентификатор кодека : S_TEXT/UTF8
Идентификатор кодека/Информация : UTF-8 Plain Text
Продолжительность : 2 ч. 22 м.
Битрейт : 48 бит/сек
Count of elements : 1676
Размер потока : 50,7 Кбайт (0%)
Заголовок : Full
Язык : English
Default : Нет
Forced : Нет
Текст #3
Идентификатор : 6
Формат : UTF-8
Идентификатор кодека : S_TEXT/UTF8
Идентификатор кодека/Информация : UTF-8 Plain Text
Продолжительность : 2 ч. 23 м.
Битрейт : 55 бит/сек
Count of elements : 2039
Размер потока : 57,8 Кбайт (0%)
Заголовок : SDH
Язык : English
Default : Нет
Forced : Нет
Меню
00:00:00.000 : en:Chapter 01
00:04:47.578 : en:Chapter 02
00:12:27.913 : en:Chapter 03
00:21:53.270 : en:Chapter 04
00:26:43.268 : en:Chapter 05
00:31:43.568 : en:Chapter 06
00:35:36.717 : en:Chapter 07
00:45:33.772 : en:Chapter 08
00:53:42.761 : en:Chapter 09
01:01:12.669 : en:Chapter 10
01:05:24.295 : en:Chapter 11
01:13:55.472 : en:Chapter 12
01:25:26.121 : en:Chapter 13
01:35:27.805 : en:Chapter 14
01:41:34.129 : en:Chapter 15
01:47:08.380 : en:Chapter 16
01:57:42.472 : en:Chapter 17
02:08:02.091 : en:Chapter 18
02:12:25.479 : en:Chapter 19
02:17:20.941 : en:Chapter 20

Внимание! Directors Cut

Directors Cut - Режиссёрская версия, на не переведённые места - форсированные субтитры!
Скриншоты:
Скриншоты:

[Цитировать]



Показать сообщения:    

Текущее время: 08-Дек 04:21

Часовой пояс: UTC + 6


Вы не можете начинать темы
Вы не можете отвечать на сообщения
Вы не можете редактировать свои сообщения
Вы не можете удалять свои сообщения
Вы не можете голосовать в опросах
Вы не можете прикреплять файлы к сообщениям
Вы не можете скачивать файлы

!ВНИМАНИЕ!
Сайт не предоставляет электронные версии произведений, а занимается лишь коллекционированием и каталогизацией ссылок, присылаемых и публикуемых на форуме нашими читателями. Если вы являетесь правообладателем какого-либо представленного материала и не желаете, чтобы ссылка на него находилась в нашем каталоге, свяжитесь с нами, и мы незамедлительно удалим ее. Файлы для обмена на трекере предоставлены пользователями сайта, и администрация не несет ответственности за их содержание. Просьба не заливать файлы, защищенные авторскими правами, а также файлы нелегального содержания!