***Уважаемые пользователи и гости !!! Сайт переехал на новый домен Torrents-club.info. Просьба изменить ваши закладки! ***
 
[ Сегодня идет свободное скачивание без начисления Download ]


Статистика раздачи
Скачал: [ 3 ]
 
   
 
 
 
 
Последний заезд / Водитель / The Driver
- Год выпуска: 2019
Жанр: Боевик, ужасы
Выпущено: Таиланд, Kaos Entertainment
Продолжительность: 01:37:31
Режиссер: Вич Каосаянанда
В ролях:
Марк Дакаскос, Джули Кондра, Ноэлани Дакаскос, Джереми Стьютс, Адам Захари Смит, Чарли Рюдпоканон, Майкл С. Нью, Милена Горум, Элис Тантаянон, Келли Б. Джонс
О фильме:
Он бывший наемный убийца, и он в совершенстве владеет навыками смертоносного мастерства. В постапокалиптическом мире он состоит на службе у местного тирана, управляющего поселением выживших после нашествия зомби. Это не приносит ему популярности среди окружающих, но ему надо содержать семью и обеспечивать ее защиту. Он — Водитель. После нападения рейдеров поселение заполняют кровожадные зомби, разрушая все на своем пути. Герою приходится бежать со своей дочерью Бри в безлюдные места, где царит беззаконие, попутно обучая ее искусству выживания в Аду.

Качество: BDRip 1080p
Видео: MPEG-4 AVC, 11.0 Мбит/с, 1920x808
Аудио: Русский (AC3, 6 ch, 384 Кбит/с), китайский (AC3, 6 ch, 640 Кбит/с)
Перевод: Дублированный

MediaInfo:

Complete name : Posledniy.zaezd.2019.BDRip.1080p.ELEKTRI4KA.UNIONGANG.mkv
Format : Matroska
Format version : Version 4
File size : 8.19 GiB
Duration : 1 h 37 min
Overall bit rate : 12.0 Mb/s
Movie name : Posledniy.zaezd.2019.BDRip.1080p.ELEKTRI4KA.UNIONGANG.
Encoded date : UTC 2021-11-15 19:38:39
Writing application : mkvmerge v8.3.0 ('Over the Horizon') 32bit
Writing library : libebml v1.3.1 + libmatroska v1.4.2
Video
ID : 1
Format : AVC
Format/Info : Advanced Video Codec
Format profile : High@L4.1
Format settings : CABAC / 5 Ref Frames
Format settings, CABAC : Yes
Format settings, Reference frames : 5 frames
Codec ID : V_MPEG4/ISO/AVC
Duration : 1 h 37 min
Bit rate : 11.0 Mb/s
Width : 1 920 pixels
Height : 808 pixels
Display aspect ratio : 2.40:1
Frame rate mode : Constant
Frame rate : 23.976 (24000/1001) FPS
Color space : YUV
Chroma subsampling : 4:2:0
Bit depth : 8 bits
Scan type : Progressive
Bits/(Pixel*Frame) : 0.296
Stream size : 7.49 GiB (91%)
Writing library : x264 core 157 r2958 57baac4
Encoding settings : cabac=1 / ref=5 / deblock=1:-3:-3 / analyse=0x3:0x113 / me=umh / subme=10 / psy=1 / psy_rd=1.00:0.15 / mixed_ref=1 / me_range=32 / chroma_me=1 / trellis=2 / 8x8dct=1 / cqm=0 / deadzone=21,11 / fast_pskip=0 / chroma_qp_offset=-3 / threads=25 / lookahead_threads=4 / sliced_threads=0 / nr=1 / decimate=0 / interlaced=0 / bluray_compat=0 / constrained_intra=0 / bframes=8 / b_pyramid=2 / b_adapt=2 / b_bias=0 / direct=3 / weightb=1 / open_gop=0 / weightp=2 / keyint=240 / keyint_min=24 / scenecut=40 / intra_refresh=0 / rc=2pass / mbtree=0 / bitrate=11000 / ratetol=1.0 / qcomp=0.60 / qpmin=0 / qpmax=69 / qpstep=4 / cplxblur=20.0 / qblur=0.5 / ip_ratio=1.40 / pb_ratio=1.30 / aq=1:1.00
Language : English
Default : Yes
Forced : No
Audio #1
ID : 2
Format : AC-3
Format/Info : Audio Coding 3
Commercial name : Dolby Digital
Codec ID : A_AC3
Duration : 1 h 37 min
Bit rate mode : Constant
Bit rate : 384 kb/s
Channel(s) : 6 channels
Channel layout : L R C LFE Ls Rs
Sampling rate : 48.0 kHz
Frame rate : 31.250 FPS (1536 SPF)
Compression mode : Lossy
Stream size : 267 MiB (3%)
Title : DUB (iTunes)
Language : Russian
Service kind : Complete Main
Default : Yes
Forced : Yes
Audio #2
ID : 3
Format : AC-3
Format/Info : Audio Coding 3
Commercial name : Dolby Digital
Codec ID : A_AC3
Duration : 1 h 37 min
Bit rate mode : Constant
Bit rate : 640 kb/s
Channel(s) : 6 channels
Channel layout : L R C LFE Ls Rs
Sampling rate : 48.0 kHz
Frame rate : 31.250 FPS (1536 SPF)
Compression mode : Lossy
Stream size : 446 MiB (5%)
Language : English
Service kind : Complete Main
Default : No
Forced : No
Menu
00:00:00.000 : :Chapter 01
00:11:15.800 : :Chapter 02
00:19:22.745 : :Chapter 03
00:26:44.353 : :Chapter 04
00:41:25.942 : :Chapter 05
00:48:59.812 : :Chapter 06
00:55:40.045 : :Chapter 07
01:06:32.322 : :Chapter 08
01:13:37.580 : :Chapter 09
01:20:53.807 : :Chapter 10
01:28:50.617 : :Chapter 11
01:35:01.696 : :Chapter 12

Скриншоты

-

[Цитировать]



Показать сообщения:    

Текущее время: 26-Янв 14:46

Часовой пояс: UTC + 6


Вы не можете начинать темы
Вы не можете отвечать на сообщения
Вы не можете редактировать свои сообщения
Вы не можете удалять свои сообщения
Вы не можете голосовать в опросах
Вы не можете прикреплять файлы к сообщениям
Вы не можете скачивать файлы

!ВНИМАНИЕ!
Сайт не предоставляет электронные версии произведений, а занимается лишь коллекционированием и каталогизацией ссылок, присылаемых и публикуемых на форуме нашими читателями. Если вы являетесь правообладателем какого-либо представленного материала и не желаете, чтобы ссылка на него находилась в нашем каталоге, свяжитесь с нами, и мы незамедлительно удалим ее. Файлы для обмена на трекере предоставлены пользователями сайта, и администрация не несет ответственности за их содержание. Просьба не заливать файлы, защищенные авторскими правами, а также файлы нелегального содержания!