***Уважаемые пользователи и гости !!! Сайт переехал на новый домен Torrents-club.info. Просьба изменить ваши закладки! ***
 
[ Сегодня идет свободное скачивание без начисления Download ]


Статистика раздачи
Скачал: [ 4 ]
 
   
 
 
 
 
Проституция / La via della prostituzione- Производство: Италия / Flora Film, Fulvia Film, Gico Cinematografica S.r.l.
Жанр: Драма
Режиссер: Джо Д’Амато
Актеры: Лаура Гемсер, Эли Галлеани, Габриэле Тинти, Венантино Венантини, Гота Гоберт, Брайан Рострон, Мануэла Романо, Николя Д’эрамо, Анна Тоффоли
Описание:
Журналистка Эммануэль собирает сногсшибательный материал о проституции и продаже девушек в респектабельные ночные заведения Америки. Под видом женщины, готовой на любые сексуальные эксперименты, она устраивается «на работу» в элитный закрытый клуб в Сан-Диего. Но журналистское расследование, проводимое Эммануэль, становится слишком рискованным.

Возраст: 18+ (зрителям, достигшим 18 лет. запрещено для детей)
Продолжительность: 01:28:15
Качество видео: BDRip 1080p
Перевод: Авторский (Андрей Дольский )
Субтитры: португальские
Видео: AVC/H.264, 1920x1036, ~14.0 Мbps
Аудио 1: AC3, 2 ch, 192 Kbps - Русский
Аудио 2: AC3, 2 ch, 192 Kbps - Английский

MediaInfo:

Общее
Уникальный идентификатор : 230970197599897247903636020835669980486 (0xADC33DF28610D9169D15C3DD02F73546)
Полное имя : Проституция (La via della prostituzione) 1978 BDRip 1080p.mkv
Формат : Matroska
Версия формата : Version 2
Размер файла : 8,87 Гбайт
Продолжительность : 1 ч. 28 м.
Общий поток : 14,4 Мбит/сек
Дата кодирования : UTC 2022-05-01 19:05:20
Программа кодирования : mkvmerge v4.0.0 ('The Stars were mine') сборка от Jun 6 2010 16:18:42
Библиотека кодирования : libebml v1.0.0 + libmatroska v1.0.0
Видео
Идентификатор : 1
Формат : AVC
Формат/Информация : Advanced Video Codec
Профиль формата : High@L4.1
Параметр CABAC формата : Да
Параметр ReFrames формата : 4 кадра
Идентификатор кодека : V_MPEG4/ISO/AVC
Продолжительность : 1 ч. 28 м.
Битрейт : 14,0 Мбит/сек
Ширина : 1920 пикселей
Высота : 1036 пикселей
Соотношение сторон : 1,85:1
Режим частоты кадров : Постоянный
Частота кадров : 23,976 (24000/1001) кадра/сек
Цветовое пространство : YUV
Субдискретизация насыщенности : 4:2:0
Битовая глубина : 8 бит
Тип развёртки : Прогрессивная
Бит/(Пиксели*Кадры) : 0.294
Размер потока : 8,46 Гбайт (95%)
Библиотека кодирования : x264 core 161 r3027 4121277
Настройки программы : cabac=1 / ref=4 / deblock=1:-1:-1 / analyse=0x3:0x133 / me=umh / subme=11 / psy=1 / psy_rd=1.00:0.00 / mixed_ref=1 / me_range=32 / chroma_me=1 / trellis=2 / 8x8dct=1 / cqm=0 / deadzone=21,11 / fast_pskip=0 / chroma_qp_offset=-2 / threads=12 / lookahead_threads=2 / sliced_threads=0 / nr=0 / decimate=0 / interlaced=0 / bluray_compat=0 / constrained_intra=0 / bframes=14 / b_pyramid=2 / b_adapt=2 / b_bias=0 / direct=3 / weightb=1 / open_gop=0 / weightp=2 / keyint=240 / keyint_min=23 / scenecut=40 / intra_refresh=0 / rc=2pass / mbtree=0 / bitrate=14000 / ratetol=1.0 / qcomp=0.60 / qpmin=0 / qpmax=69 / qpstep=4 / cplxblur=20.0 / qblur=0.5 / ip_ratio=1.40 / pb_ratio=1.30 / aq=3:0.80
Язык : Italian
Default : Нет
Forced : Нет
Аудио #1
Идентификатор : 2
Формат : AC-3
Формат/Информация : Audio Coding 3
Расширение режима : CM (complete main)
Параметр Endianness формата : Big
Идентификатор кодека : A_AC3
Продолжительность : 1 ч. 28 м.
Вид битрейта : Постоянный
Битрейт : 192 Кбит/сек
Каналы : 2 канала
Расположение каналов : Front: L R
Частота : 48,0 КГц
Частота кадров : 31,250 кадров/сек (1536 spf)
Метод сжатия : С потерями
Размер потока : 121 Мбайт (1%)
Заголовок : AVO Дольский Андрей Игоревич
Язык : Russian
Default : Нет
Forced : Нет
Аудио #2
Идентификатор : 3
Формат : AC-3
Формат/Информация : Audio Coding 3
Расширение режима : CM (complete main)
Параметр Endianness формата : Big
Идентификатор кодека : A_AC3
Продолжительность : 1 ч. 28 м.
Вид битрейта : Постоянный
Битрейт : 192 Кбит/сек
Каналы : 2 канала
Расположение каналов : Front: L R
Частота : 48,0 КГц
Частота кадров : 31,250 кадров/сек (1536 spf)
Метод сжатия : С потерями
Размер потока : 121 Мбайт (1%)
Язык : English
Default : Нет
Forced : Нет
Текст
Идентификатор : 4
Формат : UTF-8
Идентификатор кодека : S_TEXT/UTF8
Идентификатор кодека/Информация : UTF-8 Plain Text
Язык : Portuguese
Default : Нет
Forced : Нет
Меню
00:00:00.000 : en:Глава 01
00:05:00.050 : en:Глава 02
00:10:00.100 : en:Глава 03
00:15:00.149 : en:Глава 04
00:20:00.199 : en:Глава 05
00:25:00.249 : en:Глава 06
00:30:00.299 : en:Глава 07
00:35:00.348 : en:Глава 08
00:40:00.398 : en:Глава 09
00:45:00.448 : en:Глава 10
00:50:00.498 : en:Глава 11
00:55:00.547 : en:Глава 12
01:00:00.597 : en:Глава 13
01:05:00.647 : en:Глава 14
01:10:00.697 : en:Глава 15
01:15:00.746 : en:Глава 16
01:20:00.796 : en:Глава 17
01:25:00.846 : en:Глава 18

Скриншоты:

[Цитировать]



Показать сообщения:    

Текущее время: 25-Май 11:54

Часовой пояс: UTC + 6


Вы не можете начинать темы
Вы не можете отвечать на сообщения
Вы не можете редактировать свои сообщения
Вы не можете удалять свои сообщения
Вы не можете голосовать в опросах
Вы не можете прикреплять файлы к сообщениям
Вы не можете скачивать файлы

!ВНИМАНИЕ!
Сайт не предоставляет электронные версии произведений, а занимается лишь коллекционированием и каталогизацией ссылок, присылаемых и публикуемых на форуме нашими читателями. Если вы являетесь правообладателем какого-либо представленного материала и не желаете, чтобы ссылка на него находилась в нашем каталоге, свяжитесь с нами, и мы незамедлительно удалим ее. Файлы для обмена на трекере предоставлены пользователями сайта, и администрация не несет ответственности за их содержание. Просьба не заливать файлы, защищенные авторскими правами, а также файлы нелегального содержания!