***Уважаемые пользователи и гости !!! Сайт переехал на новый домен Torrents-club.info. Просьба изменить ваши закладки! ***
 
[ Сегодня идет свободное скачивание без начисления Download ]


Статистика раздачи
Нет
 
   
 
 
 
Миньоны: Грювитация / Minions: The rise of Gru Год выпуска: 2022
Выпущено: США, Illumination, Universal Pictures
Жанр: мультфильм, фантастика, комедия, криминал, приключения, семейный
Продолжительность: 01:27:35
Перевод (ы):
#1: Профессиональный (многоголосый, закадровый) | Jaskier
#2: Профессиональный (многоголосый, закадровый) | TVShows
Субтитры: Русские (forced, full), английские
Режиссер: Кайл Балда, Брэд Эблесон, Джонатан Дель Валь
В ролях: Стив Карелл, Пьер Коффан, Тараджи П. Хенсон, Жан-Клод Ван Дамм, Мишель Йео, Дольф Лундгрен, Люси Лоулесс, Дэнни Трехо, Алан Аркин, Джули Эндрюс
О фильме:
Миллион лет миньоны искали самого великого и ужасного предводителя, пока не встретили ЕГО. Знакомьтесь — Грю. Пусть он еще очень молод, но у него в планах по-настоящему гадкие дела, которые заставят планету содрогнуться.

Формат: MKV
Качество: WEB-DL 1080p
Видео: MPEG-4 AVC, 9309 Кбит/с, 1920x800
Аудио #1: AC3, 6 ch, 448 Кбит/с | RUS | Jaskier | Tnx.KinoPub
Аудио #2: AC3, 2 ch, 192 Кбит/с | RUS | TVShows
Аудио #3: E-AC3 JOC JOC, 6 ch, 768 Кбит/с | HIN |

MediaInfo

General
Unique ID : 246083325937923765024421697171373649811 (0xB921ECB425A224BE6727382BAF036F93)
Complete name : E:TorrentsMinions.2022.1080p_от New-Team_JNS82.mkv
Format : Matroska
Format version : Version 4
File size : 6.56 GiB
Duration : 1 h 27 min
Overall bit rate : 10.7 Mb/s
Movie name : Minions.2022.1080p_от New-Team_JNS82
Encoded date : UTC 2022-08-05 03:11:25
Writing application : mkvmerge v59.0.0 ('Shining Star') 64-bit
Writing library : libebml v1.4.2 + libmatroska v1.6.4
Video
ID : 1
Format : AVC
Format/Info : Advanced Video Codec
Format profile : High@L4
Format settings : CABAC / 4 Ref Frames
Format settings, CABAC : Yes
Format settings, Reference : 4 frames
Codec ID : V_MPEG4/ISO/AVC
Duration : 1 h 27 min
Bit rate mode : Constant
Bit rate : 9 309 kb/s
Nominal bit rate : 10 000 kb/s
Width : 1 920 pixels
Height : 800 pixels
Display aspect ratio : 2.40:1
Frame rate mode : Constant
Frame rate : 23.976 (24000/1001) FPS
Color space : YUV
Chroma subsampling : 4:2:0
Bit depth : 8 bits
Scan type : Progressive
Bits/(Pixel*Frame) : 0.253
Stream size : 5.70 GiB (87%)
Language : English
Default : Yes
Forced : No
Color range : Limited
Color primaries : BT.709
Transfer characteristics : BT.709
Matrix coefficients : BT.709
Audio #1
ID : 2
Format : AC-3
Format/Info : Audio Coding 3
Commercial name : Dolby Digital
Codec ID : A_AC3
Duration : 1 h 27 min
Bit rate mode : Constant
Bit rate : 448 kb/s
Channel(s) : 6 channels
Channel layout : L R C LFE Ls Rs
Sampling rate : 48.0 kHz
Frame rate : 31.250 FPS (1536 SPF)
Compression mode : Lossy
Stream size : 281 MiB (4%)
Title : MVO - Jaskier
Language : Russian
Service kind : Complete Main
Default : Yes
Forced : No
Audio #2
ID : 3
Format : AC-3
Format/Info : Audio Coding 3
Commercial name : Dolby Digital
Codec ID : A_AC3
Duration : 1 h 27 min
Bit rate mode : Constant
Bit rate : 192 kb/s
Channel(s) : 2 channels
Channel layout : L R
Sampling rate : 48.0 kHz
Frame rate : 31.250 FPS (1536 SPF)
Compression mode : Lossy
Stream size : 120 MiB (2%)
Title : MVO - TVShows
Language : Russian
Service kind : Complete Main
Default : No
Forced : No
Audio #3
ID : 4
Format : E-AC-3 JOC
Format/Info : Enhanced AC-3 with Joint Object Coding
Commercial name : Dolby Digital Plus with Dolby Atmos
Codec ID : A_EAC3
Duration : 1 h 27 min
Bit rate mode : Constant
Bit rate : 768 kb/s
Channel(s) : 6 channels
Channel layout : L R C LFE Ls Rs
Sampling rate : 48.0 kHz
Frame rate : 31.250 FPS (1536 SPF)
Compression mode : Lossy
Stream size : 481 MiB (7%)
Language : English
Service kind : Complete Main
Default : No
Forced : No
Complexity index : 16
Number of dynamic objects : 15
Bed channel count : 1 channel
Bed channel configuration : LFE
Text #1
ID : 5
Format : UTF-8
Codec ID : S_TEXT/UTF8
Codec ID/Info : UTF-8 Plain Text
Duration : 1 h 12 min
Bit rate : 3 b/s
Count of elements : 20
Stream size : 1.63 KiB (0%)
Title : [FORCED]
Language : Russian
Default : Yes
Forced : No
Text #2
ID : 6
Format : UTF-8
Codec ID : S_TEXT/UTF8
Codec ID/Info : UTF-8 Plain Text
Duration : 1 h 19 min
Bit rate : 59 b/s
Count of elements : 814
Stream size : 34.6 KiB (0%)
Title : [FULL]
Language : Russian
Default : No
Forced : No
Text #3
ID : 7
Format : UTF-8
Codec ID : S_TEXT/UTF8
Codec ID/Info : UTF-8 Plain Text
Duration : 1 h 26 min
Bit rate : 44 b/s
Count of elements : 1238
Stream size : 28.1 KiB (0%)
Language : English
Default : No
Forced : No
Text #4
ID : 8
Format : UTF-8
Codec ID : S_TEXT/UTF8
Codec ID/Info : UTF-8 Plain Text
Duration : 1 h 27 min
Bit rate : 69 b/s
Count of elements : 1892
Stream size : 44.5 KiB (0%)
Title : SDH
Language : English
Default : No
Forced : No
Menu
00:00:00.000 : Chapter 01
00:02:21.558 : Chapter 02
00:07:38.083 : Chapter 03
00:12:47.684 : Chapter 04
00:17:50.528 : Chapter 05
00:20:46.329 : Chapter 06
00:26:20.538 : Chapter 07
00:29:01.658 : Chapter 08
00:33:33.430 : Chapter 09
00:38:49.454 : Chapter 10
00:43:23.770 : Chapter 11
00:48:59.773 : Chapter 12
00:50:27.068 : Chapter 13
00:55:39.631 : Chapter 14
01:00:00.975 : Chapter 15
01:05:33.058 : Chapter 16
01:07:40.977 : Chapter 17
01:10:58.133 : Chapter 18
01:16:26.169 : Chapter 19
01:19:31.104 : Chapter 20

Скриншоты

[Цитировать]



Показать сообщения:    

Текущее время: 13-Авг 17:28

Часовой пояс: UTC + 6


Вы не можете начинать темы
Вы не можете отвечать на сообщения
Вы не можете редактировать свои сообщения
Вы не можете удалять свои сообщения
Вы не можете голосовать в опросах
Вы не можете прикреплять файлы к сообщениям
Вы не можете скачивать файлы

!ВНИМАНИЕ!
Сайт не предоставляет электронные версии произведений, а занимается лишь коллекционированием и каталогизацией ссылок, присылаемых и публикуемых на форуме нашими читателями. Если вы являетесь правообладателем какого-либо представленного материала и не желаете, чтобы ссылка на него находилась в нашем каталоге, свяжитесь с нами, и мы незамедлительно удалим ее. Файлы для обмена на трекере предоставлены пользователями сайта, и администрация не несет ответственности за их содержание. Просьба не заливать файлы, защищенные авторскими правами, а также файлы нелегального содержания!