***Уважаемые пользователи и гости !!! Сайт переехал на новый домен Torrents-club.info. Просьба изменить ваши закладки! ***
 
[ Сегодня идет свободное скачивание без начисления Download ]


Статистика раздачи
Нет
 
   
 
 
 
Миньоны: Грювитация / Minions: The rise of Gru (2022) [4K, HEVC, HDR10, HDR10+ / WEB-DL] (2160p) Год выпуска: 2022
Жанр: Мультфильм, фантастика, комедия, криминал, приключения, семейный
Выпущено: США, Illumination, Universal Pictures
Режиссер: Кайл Балда, Брэд Эблесон, Джонатан Дель Валь
Продолжительность: 01:27:31
Перевод: Профессиональный многоголосый
Субтитры: Русские, английские
Возраст 6+
В ролях: Стив Карелл, Пьер Коффан, Тараджи П. Хенсон, Жан-Клод Ван Дамм, Мишель Йео, Дольф Лундгрен, Люси Лоулесс, Дэнни Трехо, Алан Аркин, Джули Эндрюс
О фильме: Они - самые древние существа на этой планете. За свою долгую историю миньоны успели повидать очень и очень многое, и Грю, ставший их последним хозяином и хорошим другом, стоял в самом конце списка злодеев, с которыми эти желтые милашки пытались ужиться. Изначальная потребность абсолютно всех миньонов - прислуживать тому, кто продал свою душу злу и каждый день готов совершать ужасные, недостойные поступки. Начав с динозавров, которые поедали себе подобных, миньоны постепенно переходили на все новых и новых существ. Доисторические люди сменились фараонами, а они, в свою очередь - такими известными личностями, как Наполеон и Дракула. Только вот абсолютно все они ушли в небытие, так и не став примером зла для миньонов и всех окружающих людей.На какое-то время армия дружных миньонов отказалась от поиска хозяина. Так и не отыскав достойного, они начали жить для себя. Но ни одно место в мире и никакие развлечения не могли подарить им покой и удовлетворение. Потому, когда спустя несколько лет один из команды предложил отправиться в Нью-Йорк, чтобы попытать счастья, остальные с радостью его поддержали. Миньоны уверены, что они смогут отыскать достойного, и именно он станет для них настоящим наставником!
Миньоны: Грювитация
Техданные
Качество: WEB-DL (2160p)
Видео: HEVC, 14.9 Мбит/с, 3840x1600
Аудио: Русский (АС3, 6 ch, 448 Кбит/с), английский (E-AC3 JOC, 6 ch, 768 Кбит/с)

Релиз

arxivariys
Аудио 1: AC3, 48.0 kHz, 6 ch, 448 kb/s | RUS
Аудио 2: E-AC3 JOC, 48.0 kHz, 6 ch, 768 kb/s | ENG
Субтитры: русские (forced, full), английские (full, SDH)
Перевод: Профессиональный (многоголосый, закадровый) | Jaskier
Без рекламы!

MediaInfo:

General
Unique ID                                : 280061626671056979983211609149571484949 (0xD2B1E845559A43FEE28446426E4A4D15)
Complete name                            : H:\UHD\Миньоны Грювитация.2022.WEB-DL.2160p.HDR.mkv
Format                                   : Matroska
Format version                           : Version 4
File size                                : 9.87 GiB
Duration                                 : 1 h 27 min
Overall bit rate                         : 16.1 Mb/s
Encoded date                             : UTC 2022-08-04 19:06:09
Writing application                      : mkvmerge v69.0.0 ('Day And Age') 64-bit
Writing library                          : libebml v1.4.2 + libmatroska v1.6.4
Attachments                              : poster.jpg
Video
ID                                       : 1
Format                                   : HEVC
Format/Info                              : High Efficiency Video Coding
Format profile                           : Main 10@L5@Main
HDR format                               : SMPTE ST 2094 App 4, Version 1, HDR10+ Profile B compatible
Codec ID                                 : V_MPEGH/ISO/HEVC
Duration                                 : 1 h 27 min
Bit rate                                 : 14.9 Mb/s
Width                                    : 3 840 pixels
Height                                   : 1 600 pixels
Display aspect ratio                     : 2.40:1
Frame rate mode                          : Constant
Frame rate                               : 23.976 (24000/1001) FPS
Color space                              : YUV
Chroma subsampling                       : 4:2:0
Bit depth                                : 10 bits
Bits/(Pixel*Frame)                       : 0.101
Stream size                              : 9.13 GiB (92%)
Language                                 : English
Default                                  : Yes
Forced                                   : No
Color range                              : Limited
Color primaries                          : BT.2020
Transfer characteristics                 : PQ
Matrix coefficients                      : BT.2020 non-constant
Mastering display color primaries        : Display P3
Mastering display luminance              : min: 0.0050 cd/m2, max: 1000 cd/m2
Maximum Content Light Level              : 1000 cd/m2
Maximum Frame-Average Light Level        : 719 cd/m2
Audio #1
ID                                       : 2
Format                                   : AC-3
Format/Info                              : Audio Coding 3
Commercial name                          : Dolby Digital
Codec ID                                 : A_AC3
Duration                                 : 1 h 27 min
Bit rate mode                            : Constant
Bit rate                                 : 448 kb/s
Channel(s)                               : 6 channels
Channel layout                           : L R C LFE Ls Rs
Sampling rate                            : 48.0 kHz
Frame rate                               : 31.250 FPS (1536 SPF)
Compression mode                         : Lossy
Stream size                              : 280 MiB (3%)
Title                                    : MVO, Jaskier
Language                                 : Russian
Service kind                             : Complete Main
Default                                  : Yes
Forced                                   : No
Audio #2
ID                                       : 3
Format                                   : E-AC-3 JOC
Format/Info                              : Enhanced AC-3 with Joint Object Coding
Commercial name                          : Dolby Digital Plus with Dolby Atmos
Codec ID                                 : A_EAC3
Duration                                 : 1 h 27 min
Bit rate mode                            : Constant
Bit rate                                 : 768 kb/s
Channel(s)                               : 6 channels
Channel layout                           : L R C LFE Ls Rs
Sampling rate                            : 48.0 kHz
Frame rate                               : 31.250 FPS (1536 SPF)
Compression mode                         : Lossy
Stream size                              : 481 MiB (5%)
Language                                 : English
Service kind                             : Complete Main
Default                                  : No
Forced                                   : No
Complexity index                         : 16
Number of dynamic objects                : 15
Bed channel count                        : 1 channel
Bed channel configuration                : LFE
Text #1
ID                                       : 4
Format                                   : UTF-8
Codec ID                                 : S_TEXT/UTF8
Codec ID/Info                            : UTF-8 Plain Text
Duration                                 : 1 h 12 min
Bit rate                                 : 3 b/s
Frame rate                               : 0.005 FPS
Count of elements                        : 20
Stream size                              : 1.63 KiB (0%)
Title                                    : forced
Language                                 : Russian
Default                                  : Yes
Forced                                   : No
Text #2
ID                                       : 5
Format                                   : UTF-8
Codec ID                                 : S_TEXT/UTF8
Codec ID/Info                            : UTF-8 Plain Text
Duration                                 : 1 h 19 min
Bit rate                                 : 59 b/s
Frame rate                               : 0.170 FPS
Count of elements                        : 814
Stream size                              : 34.6 KiB (0%)
Title                                    : full
Language                                 : Russian
Default                                  : No
Forced                                   : No
Text #3
ID                                       : 6
Format                                   : UTF-8
Codec ID                                 : S_TEXT/UTF8
Codec ID/Info                            : UTF-8 Plain Text
Duration                                 : 1 h 26 min
Bit rate                                 : 44 b/s
Frame rate                               : 0.237 FPS
Count of elements                        : 1238
Stream size                              : 28.1 KiB (0%)
Title                                    : full
Language                                 : English
Default                                  : No
Forced                                   : No
Text #4
ID                                       : 7
Format                                   : UTF-8
Codec ID                                 : S_TEXT/UTF8
Codec ID/Info                            : UTF-8 Plain Text
Duration                                 : 1 h 27 min
Bit rate                                 : 69 b/s
Frame rate                               : 0.361 FPS
Count of elements                        : 1892
Stream size                              : 44.5 KiB (0%)
Title                                    : SDH
Language                                 : English
Default                                  : No
Forced                                   : No

Скриншоты

MAGNET

Открой меня

magnet:?xt=urn:btih:E21F7CFF9BF17772A80F5FA10381470917B25D60&dn=%d0%9c%d0%b8%d0%bd%d1%8c%d0%be%d0%bd%d1%8b%20%d0%93%d1%80%d1%8e%d0%b2%d0%b8%d1%82%d0%b0%d1%86%d0%b8%d1%8f.2022.WEB-DL.2160p.HDR.mkv&tr=http%3a%2f%2ftr3.tor4me.info%2fann%3fuk%3dF5E20kt2HF&tr=http%3a%2f%2ftr3.tor2me.info%2fann%3fuk%3dF5E20kt2HF&tr=http%3a%2f%2ftr3.torrent4me.com%2fann%3fuk%3dF5E20kt2HF&tr=http%3a%2f%2fretracker.local%2fannounce&tr=http%3a%2f%2fxbt.setitagila.ru%3a2710%2fannounce

[Цитировать]



Показать сообщения:    

Текущее время: 13-Авг 19:32

Часовой пояс: UTC + 6


Вы не можете начинать темы
Вы не можете отвечать на сообщения
Вы не можете редактировать свои сообщения
Вы не можете удалять свои сообщения
Вы не можете голосовать в опросах
Вы не можете прикреплять файлы к сообщениям
Вы не можете скачивать файлы

!ВНИМАНИЕ!
Сайт не предоставляет электронные версии произведений, а занимается лишь коллекционированием и каталогизацией ссылок, присылаемых и публикуемых на форуме нашими читателями. Если вы являетесь правообладателем какого-либо представленного материала и не желаете, чтобы ссылка на него находилась в нашем каталоге, свяжитесь с нами, и мы незамедлительно удалим ее. Файлы для обмена на трекере предоставлены пользователями сайта, и администрация не несет ответственности за их содержание. Просьба не заливать файлы, защищенные авторскими правами, а также файлы нелегального содержания!