***Уважаемые пользователи и гости !!! Сайт переехал на новый домен Torrents-club.info. Просьба изменить ваши закладки! ***
 
[ Сегодня идет свободное скачивание без начисления Download ]


Статистика раздачи
Нет
 
   
 
 
 
Миньоны: Грювитация / Minions: The Rise of Gru (2022) Год выпуска: 2022
Страна: США
Жанр: мультфильм, фантастика, комедия, криминал, приключения
Продолжительность: 01:27:30
Перевод: Профессиональный (многоголосый, закадровый) | Jaskier
Субтитры: Русские (Full / Cool Story Blog), английские, французские
Режиссер: Кайл Балда, Брэд Эблесон, Джонатан дель Валь
Бюджет: $80 000 000
Премьера в мире: 13 июня 2022


В ролях:
Стив Карелл, Пьер Коффан, Алан Аркин, Тараджи П. Хенсон, Мишель Йео, Джули Эндрюс, Расселл Брэнд, Жан-Клод Ван Дамм, Дольф Лундгрен, Дэнни Трехо и др.
Описание:
Миллион лет миньоны искали самого великого и ужасного предводителя, пока не встретили ЕГО. Знакомьтесь — Грю. Пусть он еще очень молод, но у него в планах по-настоящему гадкие дела, которые заставят планету содрогнуться.
Качество: WEB-DLRip 720p / 60 FPS
Формат: MKV
Видео кодек: H.264
Аудио кодек: AC3
Видео: x264, 1280 x 536 ( 2,40:1 ), 4378 kbps, 60,000 fps, ( 0.106 bpp)
Аудио#1: Русский, AC-3, 48.0 KHz, 6 ch, 384 Kbps MVO ( Jaskier )

MediaInfo:

x264 [info]: using cpu capabilities: MMX2 SSE2Fast SSSE3 SSE4.2 AVX AVX2 FMA3 LZCNT BMI1 BMI2
x264 [info]: profile High, level 4.1
x264 [info]: frame I:1337 Avg QP:18.40 size: 79937
x264 [info]: frame P:77221 Avg QP:19.67 size: 18748
x264 [info]: frame B:236480 Avg QP:21.90 size: 5577
x264 [info]: consecutive B-frames: 2.3% 4.6% 11.9% 19.8% 36.3% 25.1%
Общее
Уникальный идентификатор : 296263199998054785229401490197249560603 (0xDEE23782256F1ACDA670361796F0901B)
Полное имя : G:\60 FPS\Minions_The.Rise.of.Gru.(2022).WEB-DLRip.720p.(60 Fps).mkv
Формат : Matroska
Версия формата : Version 4
Размер файла : 2,91 Гбайт
Продолжительность : 1 ч. 27 м.
Общий поток : 4766 Кбит/сек
Название фильма : Миньоны: Грювитация / Minions: The Rise of Gru (2022) WEB-DLRip 720p (60 Fps)
Дата кодирования : UTC 2022-08-05 09:26:53
Программа кодирования : mkvmerge v69.0.0 ('Day And Age') 64-bit
Библиотека кодирования : libebml v1.4.2 + libmatroska v1.6.4
Видео
Идентификатор : 1
Формат : AVC
Формат/Информация : Advanced Video Codec
Профиль формата : High@L4.1
Настройки формата : CABAC / 9 Ref Frames
Параметр CABAC формата : Да
Параметр RefFrames формата : 9 кадров
Идентификатор кодека : V_MPEG4/ISO/AVC
Продолжительность : 1 ч. 27 м.
Битрейт : 4378 Кбит/сек
Ширина : 1280 пикселей
Высота : 536 пикселей
Соотношение сторон : 2,40:1
Режим частоты кадров : Постоянный
Частота кадров : 60,000 кадров/сек
Цветовое пространство : YUV
Субдискретизация насыщенности : 4:2:0
Битовая глубина : 8 бит
Тип развёртки : Прогрессивная
Бит/(Пиксели*Кадры) : 0.106
Размер потока : 2,68 Гбайт (92%)
Заголовок : slaventi-69 ( R.G. HD-Films | 60 fps )
Библиотека кодирования : x264 core 130 r2273 b3065e6
Настройки программы : cabac=1 / ref=9 / deblock=1:-3:-3 / analyse=0x3:0x133 / me=umh / subme=9 / psy=1 / psy_rd=1.00:0.00 / mixed_ref=1 / me_range=32 / chroma_me=1 / trellis=2 / 8x8dct=1 / cqm=0 / deadzone=21,11 / fast_pskip=0 / chroma_qp_offset=-2 / threads=8 / lookahead_threads=4 / sliced_threads=0 / nr=0 / decimate=1 / interlaced=0 / bluray_compat=0 / constrained_intra=0 / bframes=5 / b_pyramid=2 / b_adapt=2 / b_bias=0 / direct=2 / weightb=1 / open_gop=0 / weightp=2 / keyint=600 / keyint_min=23 / scenecut=40 / intra_refresh=0 / rc=crf / mbtree=0 / crf=17.5 / qcomp=0.60 / qpmin=0 / qpmax=69 / qpstep=4 / ip_ratio=1.40 / pb_ratio=1.30 / aq=1:1.00
Язык : English
Default : Да
Forced : Нет
Аудио
Идентификатор : 2
Формат : AC-3
Формат/Информация : Audio Coding 3
Коммерческое название : Dolby Digital
Идентификатор кодека : A_AC3
Продолжительность : 1 ч. 27 м.
Вид битрейта : Постоянный
Битрейт : 384 Кбит/сек
Каналы : 6 каналов
Channel layout : L R C LFE Ls Rs
Частота : 48,0 КГц
Частота кадров : 31,250 кадров/сек (1536 SPF)
Битовая глубина : 16 бит
Метод сжатия : С потерями
Размер потока : 240 Мбайт (8%)
Заголовок : MVO ( Jaskier )
Язык : Russian
ServiceKind/String : Complete Main
Default : Да
Forced : Нет
Текст #1
Идентификатор : 3
Формат : UTF-8
Идентификатор кодека : S_TEXT/UTF8
Идентификатор кодека/Информация : UTF-8 Plain Text
Продолжительность : 1 ч. 19 м.
Битрейт : 59 бит/сек
ElementCount : 816
Размер потока : 34,8 Кбайт (0%)
Заголовок : Full
Язык : Russian
Default : Нет
Forced : Нет
Текст #2
Идентификатор : 4
Формат : UTF-8
Идентификатор кодека : S_TEXT/UTF8
Идентификатор кодека/Информация : UTF-8 Plain Text
Продолжительность : 1 ч. 26 м.
Битрейт : 44 бит/сек
ElementCount : 1238
Размер потока : 28,1 Кбайт (0%)
Заголовок : Full
Язык : English
Default : Нет
Forced : Нет
Текст #3
Идентификатор : 5
Формат : UTF-8
Идентификатор кодека : S_TEXT/UTF8
Идентификатор кодека/Информация : UTF-8 Plain Text
Продолжительность : 1 ч. 27 м.
Битрейт : 69 бит/сек
ElementCount : 1892
Размер потока : 44,5 Кбайт (0%)
Заголовок : SDH
Язык : English
Default : Нет
Forced : Нет
Текст #4
Идентификатор : 6
Формат : UTF-8
Идентификатор кодека : S_TEXT/UTF8
Идентификатор кодека/Информация : UTF-8 Plain Text
Продолжительность : 1 ч. 26 м.
Битрейт : 37 бит/сек
ElementCount : 936
Размер потока : 23,5 Кбайт (0%)
Заголовок : Full
Язык : French
Default : Нет
Forced : Нет
Меню
00:00:00.000 : en:Chapter 01
00:02:21.558 : en:Chapter 02
00:07:38.083 : en:Chapter 03
00:12:47.684 : en:Chapter 04
00:17:50.528 : en:Chapter 05
00:20:46.329 : en:Chapter 06
00:26:20.538 : en:Chapter 07
00:29:01.658 : en:Chapter 08
00:33:33.430 : en:Chapter 09
00:38:49.454 : en:Chapter 10
00:43:23.770 : en:Chapter 11
00:48:59.773 : en:Chapter 12
00:50:27.068 : en:Chapter 13
00:55:39.631 : en:Chapter 14
01:00:00.975 : en:Chapter 15
01:05:33.058 : en:Chapter 16
01:07:40.977 : en:Chapter 17
01:10:58.133 : en:Chapter 18
01:16:26.169 : en:Chapter 19
01:19:31.104 : en:Chapter 20

[Цитировать]



Показать сообщения:    

Текущее время: 13-Авг 19:31

Часовой пояс: UTC + 6


Вы не можете начинать темы
Вы не можете отвечать на сообщения
Вы не можете редактировать свои сообщения
Вы не можете удалять свои сообщения
Вы не можете голосовать в опросах
Вы не можете прикреплять файлы к сообщениям
Вы не можете скачивать файлы

!ВНИМАНИЕ!
Сайт не предоставляет электронные версии произведений, а занимается лишь коллекционированием и каталогизацией ссылок, присылаемых и публикуемых на форуме нашими читателями. Если вы являетесь правообладателем какого-либо представленного материала и не желаете, чтобы ссылка на него находилась в нашем каталоге, свяжитесь с нами, и мы незамедлительно удалим ее. Файлы для обмена на трекере предоставлены пользователями сайта, и администрация не несет ответственности за их содержание. Просьба не заливать файлы, защищенные авторскими правами, а также файлы нелегального содержания!