***Уважаемые пользователи и гости !!! Сайт переехал на новый домен Torrents-club.info. Просьба изменить ваши закладки! ***
 
[ Сегодня идет свободное скачивание без начисления Download ]


Статистика раздачи
Скачал: [ 1 ]
 
   
 
 
 
 
Белая мгла / Whiteou Информация о фильме
Название: Белая мгла
Оригинальное название: Whiteout
Год выхода: 2009
Жанр: боевик, триллер, криминал, детектив
Режиссер: Доминик Сена / Dominic Sena
В ролях: Кейт Бекинсейл, Гэбриел Махт, Том Скеррит, Коламбус Шорт ,Алекс О`Лахлан, Шоун Дойл, Джоэль С. Келлер, Джесси Тодд, Артур Холден
О фильме:
Персонал американской полярной станции, затерявшейся на просторах Антарктики, готовится к отдыху на океанском побережье, завершив долгую вахту. Не является исключением и Кэрри Стетко, федеральный маршал, отвечающий за безопасность полярников. Проверка базы «Амундсен-Скотт», на которой стажируются новички – ее последнее задание. Планы нарушает найденный труп, в буквальном смысле свалившийся с неба. Тело принадлежит российскому полярнику. Вместе с пилотом Кэрри отправляется на станцию «Восток», где обнаруживает еще одного мертвеца, убитого ледорубом. Там на Кэрри нападает неизвестный. Похоже, ей предстоит поймать серийного убийцу за два дня, оставшихся до приближения страшного урагана – Белой мглы.

Страна: США, Канада, Франция, Турция
Студия: Dark Castle Entertainment, Warner Bros. Pictures
Продолжительность: 01:40:34
Перевод: Профессиональный (полное дублирование)
Субтитры: Русские (forced, full), английские
Файл
Формат: Matroska
Качество: WEB-DLRip-AVC
Видео: 704x396 (16:9) at 23.976 fps, x264, ~971 kbps, 0.145 bpp
Аудио: AAC, 2 ch, ~64 kbps - | Русский | - Мосфильм-Мастер
Формат субтитров: softsub (SRT)--

Примечания & Сравнения:

Исходник видео WEB-DL Amazon HBO
Open Matte версия фильма, имеет большее наполнение кадра, по сравнению с блюрэй.

M/I

x264 [info]: frame I:1081 Avg QP:14.64 size: 28475
x264 [info]: frame P:33549 Avg QP:18.36 size: 9809
x264 [info]: frame B:110054 Avg QP:20.35 size: 3373
x264 [info]: consecutive B-frames: 3.0% 4.6% 9.7% 20.1% 16.4% 30.2% 7.8% 3.2% 3.9% 0.4% 0.3% 0.1% 0.3%
General
Format : Matroska
Format version : Version 4
File size : 745 MiB
Duration : 1 h 40 min
Overall bit rate : 1 035 kb/s
Movie name : Белая мгла_(2009)_WEB_DLRIP-AVC_O.M_[-=DoMiNo=-]
Encoded date : UTC 2020-05-06 18:18:59
Writing application : mkvmerge v46.0.0 ('No Deeper Escape') 64-bit
Writing library : libebml v1.3.10 + libmatroska v1.5.2
Cover : Yes
Attachments : cover.jpg / cover 2.jpg
Video
ID : 1
Format : AVC
Format/Info : Advanced Video Codec
Format profile : High@L4.1
Format settings : CABAC / 12 Ref Frames
Format settings, CABAC : Yes
Format settings, Reference : 12 frames
Codec ID : V_MPEG4/ISO/AVC
Duration : 1 h 40 min
Bit rate : 971 kb/s
Width : 704 pixels
Height : 396 pixels
Display aspect ratio : 16:9
Frame rate mode : Constant
Frame rate : 23.976 (24000/1001) FPS
Color space : YUV
Chroma subsampling : 4:2:0
Bit depth : 8 bits
Scan type : Progressive
Bits/(Pixel*Frame) : 0.145
Stream size : 697 MiB (94%)
Title : RIP_BY_-=DoMiNo=-
Writing library : x264 core 160 r3000 33f9e14
Encoding settings : cabac=1 / ref=12 / deblock=1:-1:-1 / analyse=0x3:0x133 / me=umh / subme=11 / psy=1 / psy_rd=1.00:0.00 / mixed_ref=1 / me_range=32 / chroma_me=1 / trellis=2 / 8x8dct=1 / cqm=0 / deadzone=21,11 / fast_pskip=0 / chroma_qp_offset=-2 / threads=6 / lookahead_threads=1 / sliced_threads=0 / nr=0 / decimate=0 / interlaced=0 / bluray_compat=0 / constrained_intra=0 / bframes=12 / b_pyramid=2 / b_adapt=2 / b_bias=0 / direct=3 / weightb=1 / open_gop=0 / weightp=2 / keyint=250 / keyint_min=23 / scenecut=40 / intra_refresh=0 / rc_lookahead=60 / rc=2pass / mbtree=0 / bitrate=971 / ratetol=1.0 / qcomp=0.65 / qpmin=0 / qpmax=69 / qpstep=4 / cplxblur=20.0 / qblur=0.5 / vbv_maxrate=50000 / vbv_bufsize=62500 / nal_hrd=none / filler=0 / ip_ratio=1.40 / pb_ratio=1.30 / aq=3:0.80
Language : English
Default : Yes
Forced : No
Color range : Limited
Color primaries : BT.709
Transfer characteristics : BT.709
Matrix coefficients : BT.709
Audio
ID : 2
Format : AAC LC SBR
Format/Info : Advanced Audio Codec Low Complexity with Spectral Band Replication
Commercial name : HE-AAC
Format settings : Implicit
Codec ID : A_AAC-2
Duration : 1 h 40 min
Bit rate : 64.0 kb/s
Channel(s) : 2 channels
Channel layout : L R
Sampling rate : 48.0 kHz
Frame rate : 23.438 FPS (2048 SPF)
Compression mode : Lossy
Stream size : 46.0 MiB (6%)
Title : DUB
Language : Russian
Default : Yes
Forced : No
Text #1
ID : 3
Format : UTF-8
Codec ID : S_TEXT/UTF8
Codec ID/Info : UTF-8 Plain Text
Duration : 1 h 32 min
Bit rate : 1 b/s
Count of elements : 23
Stream size : 988 Bytes (0%)
Title : Forced
Language : Russian
Default : No
Forced : Yes
Text #2
ID : 4
Format : UTF-8
Codec ID : S_TEXT/UTF8
Codec ID/Info : UTF-8 Plain Text
Duration : 1 h 39 min
Bit rate : 62 b/s
Count of elements : 858
Stream size : 45.7 KiB (0%)
Language : Russian
Default : Yes
Forced : No
Text #3
ID : 5
Format : UTF-8
Codec ID : S_TEXT/UTF8
Codec ID/Info : UTF-8 Plain Text
Duration : 1 h 27 min
Bit rate : 40 b/s
Count of elements : 711
Stream size : 25.8 KiB (0%)
Language : English
Default : No
Forced : No
Text #4
ID : 6
Format : UTF-8
Codec ID : S_TEXT/UTF8
Codec ID/Info : UTF-8 Plain Text
Duration : 1 h 32 min
Bit rate : 50 b/s
Count of elements : 1174
Stream size : 34.1 KiB (0%)
Title : SDH
Language : English
Default : No
Forced : No
Menu
00:00:00.000 : :Глава 01
00:05:30.000 : :Глава 02
00:11:00.000 : :Глава 03
00:16:30.000 : :Глава 04
00:22:00.000 : :Глава 05
00:27:30.000 : :Глава 06
00:33:00.000 : :Глава 07
00:38:30.000 : :Глава 08
00:44:00.000 : :Глава 09
00:49:30.000 : :Глава 10
00:55:00.000 : :Глава 11
01:00:30.000 : :Глава 12
01:06:00.000 : :Глава 13
01:11:30.000 : :Глава 14
01:17:00.000 : :Глава 15
01:22:30.000 : :Глава 16
01:28:00.000 : :Глава 17
01:33:30.000 : :Глава 18
01:39:00.000 : :Глава 19

Скриншоты

--

[Цитировать]



Показать сообщения:    

Текущее время: 25-Май 11:40

Часовой пояс: UTC + 6


Вы не можете начинать темы
Вы не можете отвечать на сообщения
Вы не можете редактировать свои сообщения
Вы не можете удалять свои сообщения
Вы не можете голосовать в опросах
Вы не можете прикреплять файлы к сообщениям
Вы не можете скачивать файлы

!ВНИМАНИЕ!
Сайт не предоставляет электронные версии произведений, а занимается лишь коллекционированием и каталогизацией ссылок, присылаемых и публикуемых на форуме нашими читателями. Если вы являетесь правообладателем какого-либо представленного материала и не желаете, чтобы ссылка на него находилась в нашем каталоге, свяжитесь с нами, и мы незамедлительно удалим ее. Файлы для обмена на трекере предоставлены пользователями сайта, и администрация не несет ответственности за их содержание. Просьба не заливать файлы, защищенные авторскими правами, а также файлы нелегального содержания!