***Уважаемые пользователи и гости !!! Сайт переехал на новый домен Torrents-club.info. Просьба изменить ваши закладки! ***
 
[ Сегодня идет свободное скачивание без начисления Download ]


Статистика раздачи
Нет
 
   
 
 
 
Информация
Оригинальное название: Антизомби
Год выпуска: 2022
Жанр: Документальный, аналитика-Описание: МОБИЛИЗАЦИИ В КРЕМЛЕ БЫТЬ!
Как Путинский режим влияет на армию России.
Выпущено: Украина, ICTV
Продолжительность: ~ 00:16:31
Язык: Русский
Есть Реклама - логотип ТВ канала
Файл
Формат: mp4
Качество: WEBRip 1080p
Видео: MPEG-4 AVC, 3150 Кбит/с, 1920x1080
Аудио: AAC, 2 ch, 128 Кбит/с

О программе

«Антизомби» – Территория без пропаганды. Как получилось, что за непродолжительный период времени из 140-миллионой страны сделали послушную толпу?«Антизомби» покажет конкретные факты и способы, с помощью которых воздействуют на население каждый день.Проект собственного производства телеканала ICTV предоставит зрителю подробный анализ того, о чём пишут, говорят и что показывают россиянам их СМИ, какие мысли и взгляды пытаются им привить.

Тема выпуска

Мы уже не один раз говорили, что отрезвление России от пропагандистского угара может произойти только после какого-то глобального поражения.
Топать ножкой и терроризировать мирное население — это исключительно метод РФ.
Просто жизнь показывает, что, посеяв зло его же придется и пожинать.
И в этом случае « а нас то за что» уже не прокатит.

MediaInfo

Общее
Полное имя : D:\antizombi_22_09_2022.mp4
Формат : MPEG-4
Профиль формата : Base Media
Идентификатор кодека : isom (isom/iso2/avc1/mp41)
Размер файла : 388 Мбайт
Продолжительность : 16 м. 31 с.
Общий поток : 3 284 Кбит/сек
Название фильма : МОБИЛИЗАЦИИ В КРЕМЛЕ БЫТЬ! Как Путинский режим влияет на армию России
Программа кодирования : Lavf59.16.100
Обложка : Yes
Видео
Идентификатор : 1
Формат : AVC
Формат/Информация : Advanced Video Codec
Профиль формата : High@L4
Настройки формата : CABAC / 3 Ref Frames
Параметр CABAC формата : Да
Параметр RefFrames формата : 3 кадра
Идентификатор кодека : avc1
Идентификатор кодека/Информация : Advanced Video Coding
Продолжительность : 16 м. 31 с.
Битрейт : 3 150 Кбит/сек
Ширина : 1 920 пикселей
Высота : 1 080 пикселей
Соотношение сторон : 16:9
Режим частоты кадров : Постоянный
Частота кадров : 25, 000 кадров/сек
Цветовое пространство : YUV
Субдискретизация насыщенности : 4:2:0
Битовая глубина : 8 бит
Тип развёртки : Прогрессивная
Бит/(Пиксели*Кадры) : 0.061
Размер потока : 372 Мбайт (96%)
Заголовок : ISO Media file produced by Google Inc.
Цветовой диапазон : Limited
Основные цвета : BT.709
Характеристики трансфера : BT.709
Коэффициенты матрицы : BT.709
Codec configuration box : avcC
Аудио
Идентификатор : 2
Формат : AAC LC
Формат/Информация : Advanced Audio Codec Low Complexity
Идентификатор кодека : mp4a-40-2
Продолжительность : 16 м. 31 с.
Вид битрейта : Постоянный
Битрейт : 128 Кбит/сек
Каналы : 2 канала
Channel layout : L R
Частота : 44, 1 КГц
Частота кадров : 43, 066 кадра/сек (1024 SPF)
Метод сжатия : С потерями
Размер потока : 15, 1 Мбайт (4%)
Заголовок : ISO Media file produced by Google Inc.
Язык : English
Default : Да
Alternate group : 1

Скриншоты

[Цитировать]



Показать сообщения:    

Текущее время: 05-Окт 01:15

Часовой пояс: UTC + 6


Вы не можете начинать темы
Вы не можете отвечать на сообщения
Вы не можете редактировать свои сообщения
Вы не можете удалять свои сообщения
Вы не можете голосовать в опросах
Вы не можете прикреплять файлы к сообщениям
Вы не можете скачивать файлы

!ВНИМАНИЕ!
Сайт не предоставляет электронные версии произведений, а занимается лишь коллекционированием и каталогизацией ссылок, присылаемых и публикуемых на форуме нашими читателями. Если вы являетесь правообладателем какого-либо представленного материала и не желаете, чтобы ссылка на него находилась в нашем каталоге, свяжитесь с нами, и мы незамедлительно удалим ее. Файлы для обмена на трекере предоставлены пользователями сайта, и администрация не несет ответственности за их содержание. Просьба не заливать файлы, защищенные авторскими правами, а также файлы нелегального содержания!