***Уважаемые пользователи и гости !!! Сайт переехал на новый домен Torrents-club.info. Просьба изменить ваши закладки! ***
 
[ Сегодня идет свободное скачивание без начисления Download ]


Статистика раздачи
Нет
 
   
 
 
 
Информация
Оригинальное название: Гражданская оборона
Год выпуска: 2022
Жанр: Документальный, аналитика-Описание: НЕДОРЕФЕРЕНДУМЫ всё ближе,
коллаборантов всё меньше!
Выпущено: Украина, ICTV
Продолжительность: ~ 00:15:46
Язык: Русский
Субтитры: Русские
Есть Реклама - логотип ТВ канала
Файл
Формат: mp4
Качество: WEBRip 1080p
Видео: MPEG-4 AVC, 2830 Кбит/с, 1920x1080
Аудио: AAC, 2 ch, 128 Кбит/с

О программе

«Гражданская оборона» – Сюжеты на темы истории, военного дела, новейших военных разработок науки и техники, политики и геополитики помогут зрителям найти ответы на все острые вопросы. «Гражданская оборона» откроет глаза гражданам на то, что от них скрывают, и развеет мифы, которые навязывают нам враги страны.

Тема выпуска

К сожалению, список коллаборантов на временно оккупированных территориях Украины не ограничивается лишь Аксеновым, Поклонской, Пушилиным или Басуриным.
Да, людей, с легкостью предавших Родину и присягнувших на верность врагу,
в реальности оказалось гораздо больше, чем хотелось бы.

MediaInfo

Общее
Полное имя : D:\grazhdanskaja_oborona_22_09_2022.mp4
Формат : MPEG-4
Профиль формата : Base Media
Идентификатор кодека : isom (isom/iso2/avc1/mp41)
Размер файла : 334 Мбайт
Продолжительность : 15 м. 46 с.
Общий поток : 2 964 Кбит/сек
Название фильма : Гражданская оборона
Исполнитель : НЕДОРЕФЕРЕНДУМЫ всё ближе, коллаборантов всё меньше!
Программа кодирования : Lavf59.16.100
Обложка : Yes
Видео
Идентификатор : 1
Формат : AVC
Формат/Информация : Advanced Video Codec
Профиль формата : High@L4
Настройки формата : CABAC / 3 Ref Frames
Параметр CABAC формата : Да
Параметр RefFrames формата : 3 кадра
Идентификатор кодека : avc1
Идентификатор кодека/Информация : Advanced Video Coding
Продолжительность : 15 м. 46 с.
Битрейт : 2 830 Кбит/сек
Ширина : 1 920 пикселей
Высота : 1 080 пикселей
Соотношение сторон : 16:9
Режим частоты кадров : Постоянный
Частота кадров : 25,000 кадров/сек
Цветовое пространство : YUV
Субдискретизация насыщенности : 4:2:0
Битовая глубина : 8 бит
Тип развёртки : Прогрессивная
Бит/(Пиксели*Кадры) : 0.055
Размер потока : 319 Мбайт (95%)
Заголовок : ISO Media file produced by Google Inc.
Цветовой диапазон : Limited
Основные цвета : BT.709
Характеристики трансфера : BT.709
Коэффициенты матрицы : BT.709
Codec configuration box : avcC
Аудио
Идентификатор : 2
Формат : AAC LC
Формат/Информация : Advanced Audio Codec Low Complexity
Идентификатор кодека : mp4a-40-2
Продолжительность : 15 м. 46 с.
Вид битрейта : Постоянный
Битрейт : 128 Кбит/сек
Каналы : 2 канала
Channel layout : L R
Частота : 44,1 КГц
Частота кадров : 43,066 кадра/сек (1024 SPF)
Метод сжатия : С потерями
Размер потока : 14,4 Мбайт (4%)
Заголовок : ISO Media file produced by Google Inc.
Язык : English
Default : Да
Alternate group : 1

Скриншоты

[Цитировать]



Показать сообщения:    

Текущее время: 05-Окт 01:53

Часовой пояс: UTC + 6


Вы не можете начинать темы
Вы не можете отвечать на сообщения
Вы не можете редактировать свои сообщения
Вы не можете удалять свои сообщения
Вы не можете голосовать в опросах
Вы не можете прикреплять файлы к сообщениям
Вы не можете скачивать файлы

!ВНИМАНИЕ!
Сайт не предоставляет электронные версии произведений, а занимается лишь коллекционированием и каталогизацией ссылок, присылаемых и публикуемых на форуме нашими читателями. Если вы являетесь правообладателем какого-либо представленного материала и не желаете, чтобы ссылка на него находилась в нашем каталоге, свяжитесь с нами, и мы незамедлительно удалим ее. Файлы для обмена на трекере предоставлены пользователями сайта, и администрация не несет ответственности за их содержание. Просьба не заливать файлы, защищенные авторскими правами, а также файлы нелегального содержания!