***Уважаемые пользователи и гости !!! Сайт переехал на новый домен Torrents-club.info. Просьба изменить ваши закладки! ***
 
[ Сегодня идет свободное скачивание без начисления Download ]


Статистика раздачи
Скачал: [ 2 ]
 
   
 
 
 
 
Чудовище / Monstrous (2022) BDRip [H.264/1080p]
«Прошлое может утянуть тебя на дно»
- Производство: США / Burning Sky Films, Lucky 13 Productions, Red Coral Productions
Жанр: ужасы, драма
Режиссер: Крис Сивертсон
Продюсер: Амир Абдулла, Крэйг Альбрехт, Кёртис Антон и др.
Актеры:
Кристина Риччи, Сантино Барнард, Дон Даррелл, Коллин Кэмп, Лью Темпл, Кэрол Энн Уоттс, Дженнифер Новак, Питер Ходж, Ник Валлелонга, Салли Элберт
Описание:
1950-е. Сбежав от мужа, Лора с семилетним сыном переезжает жить в дом в сельской местности. Она всеми силами пытается наладить новую жизнь, но вскоре сталкивается с неожиданным — по ночам из близлежащего водоема вылезает мерзкое чудище с явно недобрыми намерениями.

Возраст: 16+ (зрителям, достигшим 16 лет)
Рейтинг MPAA: PG-13 (детям до 13 лет просмотр нежелателен)
Дата мировой премьеры: 12 марта 2022
Дата российской премьеры: 29 сентября 2022, «Парадиз»
Релиз от: ELEKTRI4KA & UNIONGANG
Качество видео: BDRip 1080p
Перевод: Дублированный (Мосфильм-Мастер)
Язык озвучки: Русский, Английский
Субтитры: Английские (SDH)
Продолжительность: 01:28:40
Видео: AVC/H.264, 1920x800, ~12.9 Mbps
Аудио 1: AC3, 6 ch, 384 Kbps | Русский
Аудио 2: AC3, 6 ch, 384 Kbps | Английский

MediaInfo:

General
Unique ID                                : 214772518478262270913215070667737575246 (0xA193AEB57E6570C2B1F9097C3E7EAF4E)
Complete name                            : D:\Downloads\morb\Chudovische.2022.BDRip.1080p.ELEKTRI4KA.UNIONGANG.mkv
Format                                   : Matroska
Format version                           : Version 4
File size                                : 8.46 GiB
Duration                                 : 1 h 28 min
Overall bit rate                         : 13.7 Mb/s
Movie name                               : Chudovische.2022.BDRip.1080p.ELEKTRI4KA.UNIONGANG
Encoded date                             : UTC 2022-10-26 21:00:31
Writing application                      : mkvmerge v8.3.0 ('Over the Horizon') 32bit
Writing library                          : libebml v1.3.1 + libmatroska v1.4.2
Video
ID                                       : 1
Format                                   : AVC
Format/Info                              : Advanced Video Codec
Format profile                           : [url=mailto:High@L4.1]High@L4.1[/url]
Format settings                          : CABAC / 5 Ref Frames
Format settings, CABAC                   : Yes
Format settings, Reference frames        : 5 frames
Codec ID                                 : V_MPEG4/ISO/AVC
Duration                                 : 1 h 28 min
Bit rate                                 : 12.9 Mb/s
Width                                    : 1 920 pixels
Height                                   : 800 pixels
Display aspect ratio                     : 2.40:1
Frame rate mode                          : Constant
Frame rate                               : 23.976 (24000/1001) FPS
Color space                              : YUV
Chroma subsampling                       : 4:2:0
Bit depth                                : 8 bits
Scan type                                : Progressive
Bits/(Pixel*Frame)                       : 0.350
Stream size                              : 7.98 GiB (94%)
Writing library                          : x264 core 157 r2958 57baac4
Encoding settings                        : cabac=1 / ref=5 / deblock=1:-3:-3 / analyse=0x3:0x113 / me=umh / subme=10 / psy=1 / psy_rd=1.00:0.00 / mixed_ref=1 / me_range=32 / chroma_me=1 / trellis=2 / 8x8dct=1 / cqm=0 / deadzone=21,11 / fast_pskip=0 / chroma_qp_offset=-2 / threads=25 / lookahead_threads=4 / sliced_threads=0 / nr=1 / decimate=0 / interlaced=0 / bluray_compat=0 / constrained_intra=0 / bframes=8 / b_pyramid=2 / b_adapt=2 / b_bias=0 / direct=3 / weightb=1 / open_gop=0 / weightp=2 / keyint=240 / keyint_min=24 / scenecut=40 / intra_refresh=0 / rc=2pass / mbtree=0 / bitrate=12893 / ratetol=1.0 / qcomp=0.60 / qpmin=0 / qpmax=69 / qpstep=4 / cplxblur=20.0 / qblur=0.5 / ip_ratio=1.40 / pb_ratio=1.30 / aq=1:1.00
Language                                 : English
Default                                  : Yes
Forced                                   : No
Color range                              : Limited
Color primaries                          : BT.709
Transfer characteristics                 : BT.709
Matrix coefficients                      : BT.709
Audio #1
ID                                       : 2
Format                                   : AC-3
Format/Info                              : Audio Coding 3
Commercial name                          : Dolby Digital
Codec ID                                 : A_AC3
Duration                                 : 1 h 28 min
Bit rate mode                            : Constant
Bit rate                                 : 384 kb/s
Channel(s)                               : 6 channels
Channel layout                           : L R C LFE Ls Rs
Sampling rate                            : 48.0 kHz
Frame rate                               : 31.250 FPS (1536 SPF)
Compression mode                         : Lossy
Stream size                              : 243 MiB (3%)
Title                                    : DUB (Mosfilm-Master)
Language                                 : Russian
Service kind                             : Complete Main
Default                                  : Yes
Forced                                   : Yes
Audio #2
ID                                       : 3
Format                                   : AC-3
Format/Info                              : Audio Coding 3
Commercial name                          : Dolby Digital
Codec ID                                 : A_AC3
Duration                                 : 1 h 28 min
Bit rate mode                            : Constant
Bit rate                                 : 384 kb/s
Channel(s)                               : 6 channels
Channel layout                           : L R C LFE Ls Rs
Sampling rate                            : 48.0 kHz
Frame rate                               : 31.250 FPS (1536 SPF)
Compression mode                         : Lossy
Stream size                              : 244 MiB (3%)
Title                                    : Original
Language                                 : English
Service kind                             : Complete Main
Default                                  : No
Forced                                   : No
Text
ID                                       : 4
Format                                   : UTF-8
Codec ID                                 : S_TEXT/UTF8
Codec ID/Info                            : UTF-8 Plain Text
Duration                                 : 1 h 26 min
Bit rate                                 : 50 b/s
Frame rate                               : 0.242 FPS
Count of elements                        : 1253
Stream size                              : 31.6 KiB (0%)
Title                                    : SDH
Language                                 : English
Default                                  : No
Forced                                   : No
Menu
00:00:00.000                             : en:Chapter 01
00:07:10.680                             : en:Chapter 02
00:14:18.524                             : en:Chapter 03
00:20:56.380                             : en:Chapter 04
00:28:09.062                             : en:Chapter 05
00:37:26.744                             : en:Chapter 06
00:47:41.233                             : en:Chapter 07
00:55:36.041                             : en:Chapter 08
01:02:05.889                             : en:Chapter 09
01:09:31.376                             : en:Chapter 10
01:15:45.791                             : en:Chapter 11
01:20:40.335                             : en:Chapter 12
Скриншоты:

[Цитировать]



Показать сообщения:    

Текущее время: 25-Май 10:41

Часовой пояс: UTC + 6


Вы не можете начинать темы
Вы не можете отвечать на сообщения
Вы не можете редактировать свои сообщения
Вы не можете удалять свои сообщения
Вы не можете голосовать в опросах
Вы не можете прикреплять файлы к сообщениям
Вы не можете скачивать файлы

!ВНИМАНИЕ!
Сайт не предоставляет электронные версии произведений, а занимается лишь коллекционированием и каталогизацией ссылок, присылаемых и публикуемых на форуме нашими читателями. Если вы являетесь правообладателем какого-либо представленного материала и не желаете, чтобы ссылка на него находилась в нашем каталоге, свяжитесь с нами, и мы незамедлительно удалим ее. Файлы для обмена на трекере предоставлены пользователями сайта, и администрация не несет ответственности за их содержание. Просьба не заливать файлы, защищенные авторскими правами, а также файлы нелегального содержания!