***Уважаемые пользователи и гости !!! Сайт переехал на новый домен Torrents-club.info. Просьба изменить ваши закладки! ***
 
[ Сегодня идет свободное скачивание без начисления Download ]


Статистика раздачи
Скачал: [ 2 ]
 
   
 
 
 
 
Опасный / Одинокий волк / Dangerous / Wake (2021) BDRip [H.264/1080p]- Производство: США / Benaroya Pictures, Minds Eye Entertainment, Falconer Pictures
Жанр: боевик, триллер
Продолжительность: 01:39:02
Режиссер: Дэвид Хэкл
Актеры:
Скотт Иствуд, Кевин Дюран, Фамке Янссен, Тайриз Гибсон, Мэл Гибсон, Бренда Базине, Райан Роббинс, Брендан Флетчер, Лиэнн Лэпп, Чад Рук
Описание:
Риду Форрестеру выпала непростая судьба. В юности он пошёл в армию и был направлен в горячие точки. Он уцелел на войне, но из-за ужасов, открывшихся его глазам, получил серьёзное повреждение психики. Ветеран стал настоящим социопатом, который терпеть не может окружающих и зациклен лишь на своей персоне. Он приезжает на отдалённый остров, чтобы расследовать подозрительную смерть брата.

Рейтинг MPAA: R (лицам до 17 лет обязательно присутствие взрослого)
Дата мировой премьеры: 5 ноября 2021
Релиз от: mike7025
Качество видео: BDRip
Перевод: Многоголосый профессиональный, двухголосый любительский
Субтитры: Русские, английские, французские, немецкие, испанские
Видео: AVC/H.264, 1920х804, ~12.7 Mbps
Аудио 1: AC3, 6 ch, 384 Kbps - Русский (MVO, iTunes)
Аудио 2: AC3, 6 ch, 448 Kbps - Русский (DVO, Pazl Voice)
Аудио 3: AC3, 6 ch, 448 Kbps - Украинский (Dub, AAA-sound)
Аудио 4: Е-AC3, 6 ch, 1024 Kbps - Английский
Аудио 5: AC3, 2 ch, 192 Kbps - Английский Commentary with Director David Hackl

MediaInfo:

x264 [info]: frame I:1118  Avg QP:12.45  size:183450
x264 [info]: frame P:30573 Avg QP:13.01  size: 99159
x264 [info]: frame B:110774 Avg QP:14.63  size: 56054
x264 [info]: consecutive B-frames:  3.8%  3.7%  6.5%  7.9% 15.8% 42.5%  8.7%  1.3%  2.0%  1.6%  1.6%  0.8%  1.8%  1.7%  0.5%
encoded 142465 frames, 15.84 fps, 12717.72 kb/s, 9008.5 MB
*Dirty Lines fixed
*Zones few scenes with visible banding
General
Unique ID                                : 254321692169966643463695099433237051396 (0xBF549384D7338CDD2F2B6BAC09677804)
Complete name                            : G:\Dangerous.2021.BDRip.1080p.mkv
Format                                   : Matroska
Format version                           : Version 4
File size                                : 10.5 GiB
Duration                                 : 1 h 39 min
Overall bit rate                         : 15.2 Mb/s
Encoded date                             : UTC 2022-11-18 03:41:12
Writing application                      : mkvmerge v20.0.0 ('I Am The Sun') 64-bit
Writing library                          : libebml v1.3.5 + libmatroska v1.4.8
Video
ID                                       : 1
Format                                   : AVC
Format/Info                              : Advanced Video Codec
Format profile                           : High@L4.1
Format settings                          : CABAC / 5 Ref Frames
Format settings, CABAC                   : Yes
Format settings, Reference frames        : 5 frames
Codec ID                                 : V_MPEG4/ISO/AVC
Duration                                 : 1 h 39 min
Bit rate                                 : 12.7 Mb/s
Width                                    : 1 920 pixels
Height                                   : 804 pixels
Display aspect ratio                     : 2.40:1
Frame rate mode                          : Constant
Frame rate                               : 23.976 (24000/1001) FPS
Color space                              : YUV
Chroma subsampling                       : 4:2:0
Bit depth                                : 8 bits
Scan type                                : Progressive
Bits/(Pixel*Frame)                       : 0.344
Stream size                              : 8.80 GiB (84%)
Title                                    : iFT
Writing library                          : x264 core 164 r3075+55M ~ Encoded by Mocunaman in Portugal
Encoding settings                        : cabac=1 / ref=5 / deblock=1:-3:-3 / analyse=0x3:0x113 / me=umh / subme=11 / psy=1 / fade_compensate=0.00 / psy_rd=1.00:0.00 / mixed_ref=1 / me_range=48 / chroma_me=1 / trellis=2 / 8x8dct=1 / cqm=0 / deadzone=21,11 / fast_pskip=0 / chroma_qp_offset=-2 / threads=25 / lookahead_threads=6 / sliced_threads=0 / nr=0 / decimate=0 / interlaced=0 / bluray_compat=0 / constrained_intra=0 / fgo=0 / bframes=14 / b_pyramid=2 / b_adapt=2 / b_bias=0 / direct=3 / weightb=1 / open_gop=0 / weightp=2 / keyint=250 / keyint_min=23 / scenecut=40 / intra_refresh=0 / rc_lookahead=60 / rc=crf / mbtree=0 / crf=16.8000 / qcomp=0.63 / qpmin=0:0:0 / qpmax=69:69:69 / qpstep=4 / vbv_maxrate=62500 / vbv_bufsize=78125 / crf_max=0.0 / nal_hrd=none / filler=0 / ip_ratio=1.30 / pb_ratio=1.20 / aq=3:0.80 / aq-sensitivity=10.00 / aq-factor=1.00:1.00:1.00 / aq2=0 / aq3=0 / zones=0,2664,crf=14.8/2685,7669,crf=14.8/44341,49646,crf=15.8/54284,55388,crf=15.8/65085,65613,crf=15.8/66414,68941,crf=15.8/71221,72426,crf=15.8/75206,75565,crf=14.8/76110,84229,crf=15.8/85399,88831,crf=14.8/95695,98496,crf=14.8
Language                                 : English
Default                                  : Yes
Forced                                   : No
Color range                              : Limited
Color primaries                          : BT.709
Transfer characteristics                 : BT.709
Matrix coefficients                      : BT.709
Audio #1
ID                                       : 2
Format                                   : AC-3
Format/Info                              : Audio Coding 3
Commercial name                          : Dolby Digital
Codec ID                                 : A_AC3
Duration                                 : 1 h 39 min
Bit rate mode                            : Constant
Bit rate                                 : 384 kb/s
Channel(s)                               : 6 channels
Channel layout                           : L R C LFE Ls Rs
Sampling rate                            : 48.0 kHz
Frame rate                               : 31.250 FPS (1536 SPF)
Compression mode                         : Lossy
Stream size                              : 272 MiB (3%)
Title                                    : MVO iTunes
Language                                 : Russian
Service kind                             : Complete Main
Default                                  : Yes
Forced                                   : No
Audio #2
ID                                       : 3
Format                                   : AC-3
Format/Info                              : Audio Coding 3
Commercial name                          : Dolby Digital
Codec ID                                 : A_AC3
Duration                                 : 1 h 39 min
Bit rate mode                            : Constant
Bit rate                                 : 448 kb/s
Channel(s)                               : 6 channels
Channel layout                           : L R C LFE Ls Rs
Sampling rate                            : 48.0 kHz
Frame rate                               : 31.250 FPS (1536 SPF)
Compression mode                         : Lossy
Stream size                              : 317 MiB (3%)
Title                                    : DVO Pazl Voice
Language                                 : Russian
Service kind                             : Complete Main
Default                                  : No
Forced                                   : No
Audio #3
ID                                       : 4
Format                                   : AC-3
Format/Info                              : Audio Coding 3
Commercial name                          : Dolby Digital
Codec ID                                 : A_AC3
Duration                                 : 1 h 39 min
Bit rate mode                            : Constant
Bit rate                                 : 448 kb/s
Channel(s)                               : 6 channels
Channel layout                           : L R C LFE Ls Rs
Sampling rate                            : 48.0 kHz
Frame rate                               : 31.250 FPS (1536 SPF)
Compression mode                         : Lossy
Stream size                              : 317 MiB (3%)
Title                                    : Dub AAA-sound
Language                                 : Ukrainian
Service kind                             : Complete Main
Default                                  : No
Forced                                   : No
Audio #4
ID                                       : 5
Format                                   : E-AC-3
Format/Info                              : Enhanced AC-3
Commercial name                          : Dolby Digital Plus
Codec ID                                 : A_EAC3
Duration                                 : 1 h 39 min
Bit rate mode                            : Constant
Bit rate                                 : 1 024 kb/s
Channel(s)                               : 6 channels
Channel layout                           : L R C LFE Ls Rs
Sampling rate                            : 48.0 kHz
Frame rate                               : 31.250 FPS (1536 SPF)
Compression mode                         : Lossy
Stream size                              : 725 MiB (7%)
Language                                 : English
Service kind                             : Complete Main
Default                                  : No
Forced                                   : No
Audio #5
ID                                       : 6
Format                                   : AC-3
Format/Info                              : Audio Coding 3
Commercial name                          : Dolby Digital
Codec ID                                 : A_AC3
Duration                                 : 1 h 39 min
Bit rate mode                            : Constant
Bit rate                                 : 192 kb/s
Channel(s)                               : 2 channels
Channel layout                           : L R
Sampling rate                            : 48.0 kHz
Frame rate                               : 31.250 FPS (1536 SPF)
Compression mode                         : Lossy
Stream size                              : 136 MiB (1%)
Title                                    : Commentary with Director David Hackl
Language                                 : English
Service kind                             : Complete Main
Default                                  : No
Forced                                   : No
Text #1
ID                                       : 7
Format                                   : UTF-8
Codec ID                                 : S_TEXT/UTF8
Codec ID/Info                            : UTF-8 Plain Text
Duration                                 : 1 h 32 min
Bit rate                                 : 64 b/s
Count of elements                        : 1089
Stream size                              : 43.5 KiB (0%)
Title                                    : MENINSUB
Language                                 : Russian
Default                                  : No
Forced                                   : No
Text #2
ID                                       : 8
Format                                   : UTF-8
Codec ID                                 : S_TEXT/UTF8
Codec ID/Info                            : UTF-8 Plain Text
Duration                                 : 1 h 31 min
Bit rate                                 : 46 b/s
Count of elements                        : 1092
Stream size                              : 31.6 KiB (0%)
Language                                 : English
Default                                  : No
Forced                                   : No
Text #3
ID                                       : 9
Format                                   : UTF-8
Codec ID                                 : S_TEXT/UTF8
Codec ID/Info                            : UTF-8 Plain Text
Duration                                 : 1 h 32 min
Bit rate                                 : 51 b/s
Count of elements                        : 1092
Stream size                              : 34.8 KiB (0%)
Language                                 : French
Default                                  : No
Forced                                   : No
Text #4
ID                                       : 10
Format                                   : UTF-8
Codec ID                                 : S_TEXT/UTF8
Codec ID/Info                            : UTF-8 Plain Text
Duration                                 : 1 h 32 min
Bit rate                                 : 53 b/s
Count of elements                        : 1094
Stream size                              : 36.4 KiB (0%)
Language                                 : German
Default                                  : No
Forced                                   : No
Text #5
ID                                       : 11
Format                                   : UTF-8
Codec ID                                 : S_TEXT/UTF8
Codec ID/Info                            : UTF-8 Plain Text
Duration                                 : 1 h 32 min
Bit rate                                 : 50 b/s
Count of elements                        : 1100
Stream size                              : 34.2 KiB (0%)
Language                                 : Spanish
Default                                  : No
Forced                                   : No
Menu
00:00:00.000                             : en:Chapter 01
00:05:16.942                             : en:Chapter 02
00:09:18.725                             : en:Chapter 03
00:16:57.433                             : en:Chapter 04
00:21:28.204                             : en:Chapter 05
00:26:39.181                             : en:Chapter 06
00:33:39.726                             : en:Chapter 07
00:40:35.600                             : en:Chapter 08
00:44:59.614                             : en:Chapter 09
00:50:47.336                             : en:Chapter 10
00:58:51.027                             : en:Chapter 11
01:05:08.446                             : en:Chapter 12
01:11:23.529                             : en:Chapter 13
01:19:51.996                             : en:Chapter 14
01:26:23.053                             : en:Chapter 15
01:32:27.375                             : en:Chapter 16
Скриншоты:

Дополнительные скриншоты:



[Цитировать]



Показать сообщения:    

Текущее время: 25-Май 11:23

Часовой пояс: UTC + 6


Вы не можете начинать темы
Вы не можете отвечать на сообщения
Вы не можете редактировать свои сообщения
Вы не можете удалять свои сообщения
Вы не можете голосовать в опросах
Вы не можете прикреплять файлы к сообщениям
Вы не можете скачивать файлы

!ВНИМАНИЕ!
Сайт не предоставляет электронные версии произведений, а занимается лишь коллекционированием и каталогизацией ссылок, присылаемых и публикуемых на форуме нашими читателями. Если вы являетесь правообладателем какого-либо представленного материала и не желаете, чтобы ссылка на него находилась в нашем каталоге, свяжитесь с нами, и мы незамедлительно удалим ее. Файлы для обмена на трекере предоставлены пользователями сайта, и администрация не несет ответственности за их содержание. Просьба не заливать файлы, защищенные авторскими правами, а также файлы нелегального содержания!