***Уважаемые пользователи и гости !!! Сайт переехал на новый домен Torrents-club.info. Просьба изменить ваши закладки! ***
 
[ Сегодня идет свободное скачивание без начисления Download ]


Статистика раздачи
Скачал: [ 1 ]
 
   
 
 
 
 
Кодекс киллера / The Protégé / The Protege Информация о фильме:
Название: Кодекс киллера
Оригинальное название: The Protégé / The Protege
Год выхода: 2021
Жанр: Боевик, триллер, криминал
Режиссер: Мартин Кэмпбелл
В ролях: Сэмюэл Л. Джексон, Майкл Китон, Мэгги Кью, Дэвид Ринтул, Патрик Мэлахайд, Рэй Фиарон, Ори Феффер, Роберт Патрик, Флорин Пьерсик мл., Тудор Кирилэ
О фильме:
С самого детства она знает, как убивать и со временем именно это становится ее ремеслом. В своем деле Анна — профессионал, так как обучалась у лучшего из наемников. После смерти наставника ассасины выходят на тропу войны, но и девушка, обученная различным видам единоборства, готова принять вызов. В ее арсенале не только оружие и ножи, но еще и искусство соблазнителя. Теперь Анне придется стать оружием мщения, а также узнать правду о своем истинном происхождении.

Страна: США, Великобритания
Студия: Arthur Sarkissian Productions, Campbell Grobman Films, Fourteen Films
Продолжительность: 01:49:13
Перевод: Профессиональный (полное дублирование) | iTunes
Файл
Формат: MKV
Качество: HDRip-AVC
Видео: MPEG-4 AVC, 760x316, 869 Кбит/с
Аудио: AAC-HE, 2 ch, 84 Кбит/с
Субтитры: Русские, английские

MI

Общее
Уникальный идентификатор : 90385645981166209155665601946917130695 (0x43FFA4681F7E2B43B401BF1B7FF9D1C7)
Полное имя : D:MOVIESKodeks_killera.2021.HDRip-AVC.ExKinoRay.mkv
Формат : Matroska
Версия формата : Version 4
Размер файла : 744 Мбайт
Продолжительность : 1 ч. 49 м.
Общий поток : 953 Кбит/сек
Дата кодирования : UTC 2023-02-18 05:30:32
Программа кодирования : mkvmerge v48.0.0 ('Fortress Around Your Heart') 64-bit
Библиотека кодирования : libebml v1.4.0 + libmatroska v1.6.0
Видео
Идентификатор : 1
Формат : AVC
Формат/Информация : Advanced Video Codec
Профиль формата : High@L4.1
Настройки формата : CABAC / 14 Ref Frames
Параметр CABAC формата : Да
Параметр RefFrames формата : 14 кадров
Идентификатор кодека : V_MPEG4/ISO/AVC
Продолжительность : 1 ч. 49 м.
Битрейт : 869 Кбит/сек
Ширина : 760 пикселей
Высота : 316 пикселей
Соотношение сторон : 2,40:1
Режим частоты кадров : Постоянный
Частота кадров : 23,976 (24000/1001) кадра/сек
Цветовое пространство : YUV
Субдискретизация насыщенности : 4:2:0
Битовая глубина : 8 бит
Тип развёртки : Прогрессивная
Бит/(Пиксели*Кадры) : 0.151
Размер потока : 677 Мбайт (91%)
Библиотека кодирования : x264 core 164 r3081 19856cc
Настройки программы : cabac=1 / ref=14 / deblock=1:-3:-2 / analyse=0x3:0x133 / me=umh / subme=10 / psy=1 / psy_rd=1.05:0.14 / mixed_ref=1 / me_range=32 / chroma_me=1 / trellis=2 / 8x8dct=1 / cqm=0 / deadzone=21,11 / fast_pskip=0 / chroma_qp_offset=-3 / threads=6 / lookahead_threads=1 / sliced_threads=0 / nr=0 / decimate=0 / interlaced=0 / bluray_compat=0 / constrained_intra=0 / bframes=12 / b_pyramid=2 / b_adapt=2 / b_bias=0 / direct=3 / weightb=1 / open_gop=0 / weightp=2 / keyint=240 / keyint_min=23 / scenecut=40 / intra_refresh=0 / rc=2pass / mbtree=0 / bitrate=869 / ratetol=1.0 / qcomp=0.60 / qpmin=0 / qpmax=69 / qpstep=4 / cplxblur=20.0 / qblur=0.5 / ip_ratio=1.40 / pb_ratio=1.30 / aq=3:1.00
Язык : English
Default : Да
Forced : Нет
Цветовой диапазон : Limited
Основные цвета : BT.709
Характеристики трансфера : BT.709
Коэффициенты матрицы : BT.709
Аудио
Идентификатор : 2
Формат : AAC LC SBR
Формат/Информация : Advanced Audio Codec Low Complexity with Spectral Band Replication
Коммерческое название : HE-AAC
Настройки формата : Explicit
Идентификатор кодека : A_AAC-2
Продолжительность : 1 ч. 49 м.
Битрейт : 84,0 Кбит/сек
Каналы : 2 канала
Channel layout : L R
Частота : 48,0 КГц
Частота кадров : 23,438 кадра/сек (2048 SPF)
Метод сжатия : С потерями
Задержка видео : 31 мс.
Размер потока : 65,6 Мбайт (9%)
Язык : Russian
Default : Да
Forced : Нет
Текст #1
Идентификатор : 3
Формат : UTF-8
Идентификатор кодека : S_TEXT/UTF8
Идентификатор кодека/Информация : UTF-8 Plain Text
Продолжительность : 1 ч. 37 м.
Битрейт : 48 бит/сек
Частота кадров : 0,134 кадр/сек
Count of elements : 780
Размер потока : 34,8 Кбайт (0%)
Заголовок : Full
Язык : Russian
Default : Нет
Forced : Нет
Текст #2
Идентификатор : 4
Формат : UTF-8
Идентификатор кодека : S_TEXT/UTF8
Идентификатор кодека/Информация : UTF-8 Plain Text
Продолжительность : 1 ч. 37 м.
Битрейт : 36 бит/сек
Частота кадров : 0,137 кадр/сек
Count of elements : 800
Размер потока : 26,3 Кбайт (0%)
Язык : English
Default : Нет
Forced : Нет
Меню
00:00:00.000 : Chapter
00:11:18.094 : Chapter
00:20:51.541 : Chapter
00:29:48.286 : Chapter
00:38:38.524 : Chapter
00:46:42.049 : Chapter
00:57:01.126 : Chapter
01:05:41.687 : Chapter
01:14:30.424 : Chapter
01:24:01.953 : Chapter
01:33:25.975 : Chapter
01:40:32.776 : Chapter

Скриншоты

[Цитировать]



Показать сообщения:    

Текущее время: 25-Май 11:08

Часовой пояс: UTC + 6


Вы не можете начинать темы
Вы не можете отвечать на сообщения
Вы не можете редактировать свои сообщения
Вы не можете удалять свои сообщения
Вы не можете голосовать в опросах
Вы не можете прикреплять файлы к сообщениям
Вы не можете скачивать файлы

!ВНИМАНИЕ!
Сайт не предоставляет электронные версии произведений, а занимается лишь коллекционированием и каталогизацией ссылок, присылаемых и публикуемых на форуме нашими читателями. Если вы являетесь правообладателем какого-либо представленного материала и не желаете, чтобы ссылка на него находилась в нашем каталоге, свяжитесь с нами, и мы незамедлительно удалим ее. Файлы для обмена на трекере предоставлены пользователями сайта, и администрация не несет ответственности за их содержание. Просьба не заливать файлы, защищенные авторскими правами, а также файлы нелегального содержания!