***Уважаемые пользователи и гости !!! Сайт переехал на новый домен Torrents-club.info. Просьба изменить ваши закладки! ***
 
[ Сегодня идет свободное скачивание без начисления Download ]


Статистика раздачи
Нет
 
   
 
 
 
 
-Евровидение 2023 - Финал /Eurovision 2023 - Final-Жанр: Pop
Продолжительность: 04:14:00
Год выпуска: 2023-Описание: Комментировали Александр Хоботов и Юлия Календа.
Конкурс песни «Евровидение-2023» — 67-й конкурс песни «Евровидение»,
который будет проведен в Ливерпуле (Великобритания) от имени Украины,
благодаря победе группы Kalush Orchestra с песней «Stefania» на конкурсе предыдущего года,
проходившем в Турине, Италия.-Качество: HDTV
Разрешение видео/развертка: 1080i
Контейнер: TS
Видео кодек: H.264
Аудио кодек: MP2
Видео: H264, 1920x1080i, 14400kbps, 25fps
Аудио: MPEG Audio, 320kbps, 48000kHz, 2ch

Треклист

1 - Austria - Teya and Salena - "Who the Hell Is Edgar?"
2 - Portugal - Mimicat - "Ai coração"
3 - Switzerland - Remo Forrer - "Watergun"
4 - Poland - Blanka - "Solo" - English 9
5 - Serbia - Luke Black - "Samo mi se spava" (Само ми се спава)
6 - France - La Zarra - "Évidemment"
7 - Cyprus - Andrew Lambrou - "Break a Broken Heart"
8 - Spain - Blanca Paloma - "Eaea"
9 - Sweden - Loreen - "Tattoo"
10 - Albania - Albina and Familja Kelmendi - "Duje"
11 - Italy - Marco Mengoni - "Due vite"
12 - Estonia - Alika - "Bridges"
13 - Finland - Käärijä - "Cha Cha Cha"
14 - Czech Republic - Vesna - "My Sister's Crown"
15 - Australia - Voyager - "Promise"
16 - Belgium - Gustaph - "Because of You"
17 - Armenia - Brunette - "Future Lover"
18 - Moldova - Pasha Parfeni - "Soarele și luna"
19 - Ukraine - Tvorchi - "Heart of Steel"
20 - Norway - Alessandra - "Queen of Kings"
21 - Germany - Lord of the Lost - "Blood & Glitter"
22 - Lithuania - Monika Linkytė - "Stay"
23 - Israel - Noa Kirel - "Unicorn"
24 - Slovenia - Joker Out - "Carpe Diem"
25 - Croatia - Let 3 - "Mama ŠČ!"
26 - United Kingdom - Mae Muller - "I Wrote a Song"

Отчёт MediaInfo / BDInfo

Общее
Идентификатор : 1 (0x1)
Полное имя : D:\Eurovision 2023 - Final ETV+ HDTV H264 1080i MP2-ilya2129.ts
Формат : MPEG-TS
Размер файла : 28,6 Гбайт
Продолжительность : 4 ч. 14 м.
Режим общего битрейта : Переменный
Общий поток : 16,1 Мбит/сек
Частота кадров : 25,000 кадров/сек
Видео
Идентификатор : 301 (0x12D)
Идентификатор меню : 1 (0x1)
Формат : AVC
Формат/Информация : Advanced Video Codec
Профиль формата : High@L4
Настройки формата : CABAC / 3 Ref Frames
Параметр CABAC формата : Да
Параметр RefFrames формата : 3 кадра
Идентификатор кодека : 27
Продолжительность : 4 ч. 14 м.
Битрейт : 14,4 Мбит/сек
Ширина : 1 920 пикселей
Высота : 1 080 пикселей
Соотношение сторон : 16:9
Частота кадров : 25,000 кадров/сек
Стандарт вещания : Component
Цветовое пространство : YUV
Субдискретизация насыщенности : 4:2:0
Битовая глубина : 8 бит
Тип развёртки : Чересстрочная
Метод сохранения типа развёртки : Раздельные поля
Порядок развёртки : Верхнее поле первое
Бит/(Пиксели*Кадры) : 0.277
Размер потока : 25,5 Гбайт (89%)
Цветовой диапазон : Limited
Основные цвета : BT.709
Характеристики трансфера : BT.709
Коэффициенты матрицы : BT.709
Аудио #1
Идентификатор : 302 (0x12E)
Идентификатор меню : 1 (0x1)
Формат : MPEG Audio
Версия формата : Version 1
Профиль формата : Layer 2
Идентификатор кодека : 3
Продолжительность : 4 ч. 14 м.
Вид битрейта : Постоянный
Битрейт : 320 Кбит/сек
Каналы : 2 канала
Частота : 48,0 КГц
Частота кадров : 41,667 кадра/сек (1152 SPF)
Метод сжатия : С потерями
Задержка видео : -120 мс.
Размер потока : 582 Мбайт (2%)
Язык : Russian
Аудио #2
Идентификатор : 303 (0x12F)
Идентификатор меню : 1 (0x1)
Формат : MPEG Audio
Версия формата : Version 1
Профиль формата : Layer 2
Идентификатор кодека : 3
Продолжительность : 4 ч. 14 м.
Вид битрейта : Постоянный
Битрейт : 320 Кбит/сек
Каналы : 2 канала
Частота : 48,0 КГц
Частота кадров : 41,667 кадра/сек (1152 SPF)
Метод сжатия : С потерями
Задержка видео : -120 мс.
Размер потока : 582 Мбайт (2%)
Язык : Estonian
Аудио #3
Идентификатор : 304 (0x130)
Идентификатор меню : 1 (0x1)
Формат : MPEG Audio
Версия формата : Version 1
Профиль формата : Layer 2
Идентификатор кодека : 3
Продолжительность : 4 ч. 14 м.
Вид битрейта : Постоянный
Битрейт : 320 Кбит/сек
Каналы : 2 канала
Частота : 48,0 КГц
Частота кадров : 41,667 кадра/сек (1152 SPF)
Метод сжатия : С потерями
Задержка видео : -120 мс.
Размер потока : 582 Мбайт (2%)
Язык : Estonian

Скриншоты

[Цитировать]



Показать сообщения:    

Текущее время: 14-Июн 15:43

Часовой пояс: UTC + 6


Вы не можете начинать темы
Вы не можете отвечать на сообщения
Вы не можете редактировать свои сообщения
Вы не можете удалять свои сообщения
Вы не можете голосовать в опросах
Вы не можете прикреплять файлы к сообщениям
Вы не можете скачивать файлы

!ВНИМАНИЕ!
Сайт не предоставляет электронные версии произведений, а занимается лишь коллекционированием и каталогизацией ссылок, присылаемых и публикуемых на форуме нашими читателями. Если вы являетесь правообладателем какого-либо представленного материала и не желаете, чтобы ссылка на него находилась в нашем каталоге, свяжитесь с нами, и мы незамедлительно удалим ее. Файлы для обмена на трекере предоставлены пользователями сайта, и администрация не несет ответственности за их содержание. Просьба не заливать файлы, защищенные авторскими правами, а также файлы нелегального содержания!