***Уважаемые пользователи и гости !!! Сайт переехал на новый домен Torrents-club.info. Просьба изменить ваши закладки! ***
 
[ Сегодня идет свободное скачивание без начисления Download ]


Статистика раздачи
Нет
 
   
 
 
 
 
Клаустрофобы: Квест с того света / Play Dead Информация о фильме
Название: Клаустрофобы: Квест с того света
Оригинальное название: Play Dead
Год выхода: 2022
Жанр: ужасы, триллер
Режиссер: Патрик Люссье
В ролях: Бэйли Мэдисон, Джерри О`Коннелл, Энтони Тёрпел, Стерлинг Бомон, Крис Батлер, Грег Корнелиус, Лестонья Диас, Джош Харп, Крис Ли, Кайлер О'Нил
О фильме:
Студентка криминологии Хлоя приходит в себя в морге. Вместе со своим парнем, младшим братом и другими незнакомцами ей приходится участвовать в смертельно опасном квесте со множеством изощренных ловушек. Только пройдя квест, можно вернуться в мир живых.

Выпущено: США / Green Light Pictures, Bradley Pilz Productions
Продолжительность: 01:46:04
Перевод: Дублированный | Paragraph Media
Субтитры: Русские (Forced, full), английские
Файл
Формат: Matroska
Качество: BDRip-AVC
Видео: 1024x428 at 23.976 fps, x264@L4.1, ~1934 kbps
Аудио: AC3, 6 ch, ~448 kbps - | Русский |
Формат субтитров: softsub (SRT)

M/I

General
Unique ID : 118704872048181438375829927960590946621 (0x594DBA0D16D37EBCBDEE7302AE6C113D)
Complete name : I:Play.Dead.2022.BDRip.x264.seleZen.mkv
Format : Matroska
Format version : Version 4
File size : 1.77 GiB
Duration : 1 h 46 min
Overall bit rate : 2 384 kb/s
Frame rate : 23.976 FPS
Movie name : Play.Dead.2022.BDRip.x264.seleZen
Encoded date : 2023-05-25 06:38:29 UTC
Writing application : mkvmerge v76.0 ('Celebration') 64-bit
Writing library : libebml v1.4.4 + libmatroska v1.7.1
Cover : Yes
Attachments : cover.jpg / small_cover.jpg
Video
ID : 1
Format : AVC
Format/Info : Advanced Video Codec
Format profile : High@L4.1
Format settings : CABAC / 12 Ref Frames
Format settings, CABAC : Yes
Format settings, Reference : 12 frames
Codec ID : V_MPEG4/ISO/AVC
Duration : 1 h 46 min
Bit rate : 1 934 kb/s
Width : 1 024 pixels
Height : 428 pixels
Display aspect ratio : 2.40:1
Frame rate mode : Constant
Frame rate : 23.976 (24000/1001) FPS
Color space : YUV
Chroma subsampling : 4:2:0
Bit depth : 8 bits
Scan type : Progressive
Bits/(Pixel*Frame) : 0.184
Stream size : 1.43 GiB (81%)
Title : -=DoMiNo=-
Writing library : x264 core 164 r3107+58M ae98796 t_mod_New | by -=DoMiNo=- | X86_64]
Encoding settings : cabac=1 / ref=12 / deblock=1:-2:-2 / analyse=0x3:0x133 / me=umh / subme=10 / psy=1 / fade_compensate=0.00 / psy_rd=1.03:0.05 / mixed_ref=1 / me_range=32 / chroma_me=1 / trellis=2 / 8x8dct=1 / cqm=0 / deadzone=21,11 / fast_pskip=0 / chroma_qp_offset=-3 / threads=17 / lookahead_threads=3 / sliced_threads=0 / nr=0 / decimate=1 / interlaced=0 / bluray_compat=0 / constrained_intra=0 / fgo=0 / bframes=14 / b_pyramid=2 / b_adapt=2 / b_bias=0 / direct=3 / weightb=1 / open_gop=0 / weightp=2 / keyint=240 / keyint_min=23 / scenecut=40 / intra_refresh=0 / rc_lookahead=60 / rc=crf / mbtree=0 / crf=18.3000 / qcomp=0.60 / qpmin=0:0:0 / qpmax=69:69:69 / qpstep=4 / vbv_maxrate=50000 / vbv_bufsize=62500 / crf_max=0.0 / nal_hrd=none / filler=0 / ip_ratio=1.35 / pb_ratio=1.25 / aq=3:0.90 / aq-sensitivity=10.00 / aq-factor=1.00:1.00:1.00:1.00 / aq2=0 / aq3=0
Language : English
Default : Yes
Forced : No
Color range : Limited
Color primaries : BT.709
Transfer characteristics : BT.709
Matrix coefficients : BT.709
Audio
ID : 2
Format : AC-3
Format/Info : Audio Coding 3
Commercial name : Dolby Digital
Codec ID : A_AC3
Duration : 1 h 45 min
Bit rate mode : Constant
Bit rate : 448 kb/s
Channel(s) : 6 channels
Channel layout : L R C LFE Ls Rs
Sampling rate : 48.0 kHz
Frame rate : 31.250 FPS (1536 SPF)
Compression mode : Lossy
Stream size : 339 MiB (19%)
Title : Dub
Language : Russian
Service kind : Complete Main
Default : Yes
Forced : Yes
Text #1
ID : 3
Format : UTF-8
Codec ID : S_TEXT/UTF8
Codec ID/Info : UTF-8 Plain Text
Duration : 1 h 39 min
Bit rate : 0 b/s
Frame rate : 0.003 FPS
Count of elements : 16
Stream size : 717 Bytes (0%)
Title : Forced
Language : Russian
Default : Yes
Forced : Yes
Text #2
ID : 4
Format : UTF-8
Codec ID : S_TEXT/UTF8
Codec ID/Info : UTF-8 Plain Text
Duration : 1 h 40 min
Bit rate : 52 b/s
Frame rate : 0.150 FPS
Count of elements : 903
Stream size : 38.3 KiB (0%)
Title : Full
Language : Russian
Default : No
Forced : No
Text #3
ID : 5
Format : UTF-8
Codec ID : S_TEXT/UTF8
Codec ID/Info : UTF-8 Plain Text
Duration : 1 h 40 min
Bit rate : 35 b/s
Frame rate : 0.174 FPS
Count of elements : 1048
Stream size : 26.2 KiB (0%)
Title : Full
Language : English
Default : No
Forced : No
Text #4
ID : 6
Format : UTF-8
Codec ID : S_TEXT/UTF8
Codec ID/Info : UTF-8 Plain Text
Duration : 1 h 42 min
Bit rate : 45 b/s
Frame rate : 0.231 FPS
Count of elements : 1414
Stream size : 34.0 KiB (0%)
Title : SDH
Language : English
Default : No
Forced : No
Menu
00:00:00.000 : en:Chapter 01
00:09:09.340 : en:Chapter 02
00:16:53.638 : en:Chapter 03
00:25:02.835 : en:Chapter 04
00:33:08.111 : en:Chapter 05
00:42:24.625 : en:Chapter 06
00:51:26.208 : en:Chapter 07
01:00:32.963 : en:Chapter 08
01:09:32.335 : en:Chapter 09
01:19:21.048 : en:Chapter 10
01:28:04.988 : en:Chapter 11
01:34:58.026 : en:Chapter 12
01:42:49.580 : en:Chapter 13

Скриншоты


[Цитировать]



Показать сообщения:    

Текущее время: 18-Июн 20:14

Часовой пояс: UTC + 6


Вы не можете начинать темы
Вы не можете отвечать на сообщения
Вы не можете редактировать свои сообщения
Вы не можете удалять свои сообщения
Вы не можете голосовать в опросах
Вы не можете прикреплять файлы к сообщениям
Вы не можете скачивать файлы

!ВНИМАНИЕ!
Сайт не предоставляет электронные версии произведений, а занимается лишь коллекционированием и каталогизацией ссылок, присылаемых и публикуемых на форуме нашими читателями. Если вы являетесь правообладателем какого-либо представленного материала и не желаете, чтобы ссылка на него находилась в нашем каталоге, свяжитесь с нами, и мы незамедлительно удалим ее. Файлы для обмена на трекере предоставлены пользователями сайта, и администрация не несет ответственности за их содержание. Просьба не заливать файлы, защищенные авторскими правами, а также файлы нелегального содержания!