***Уважаемые пользователи и гости !!! Сайт переехал на новый домен Torrents-club.info. Просьба изменить ваши закладки! ***
 
[ Сегодня идет свободное скачивание без начисления Download ]


Статистика раздачи
Нет
 
   
 
 
 
 
Шафер / The Best Man Информация о фильме
Название: Шафер
Оригинальное название: The Best Man
Страна: США
Студия: Archstone Entertainment, Archstone Pictures, BondIt, Buffalo 8 Productions
Жанр: боевик, триллер
Год выпуска: 2023
Режиссер: Шэйн Дэкс Тейлор / Shane Dax Taylor
В ролях: Брендан Фер, Никки Уилан, Скаут Тэйлор-Комптон, Скотт Мартин, Дольф Лундгрен, Люк Уилсон, Райан Дэвлин, Уэс Хагер, Андрей Ивченко, Крис Маллинэкс
Описание: Действие фильма разворачивается на отдаленном курорте во время свадебной церемонии. Группа террористов захватывает гостей в заложники, так что жениху, шаферу и их лучшему другу предстоит сразиться с преступниками и спасти своих близких.
Скачать семпл
Продолжительность: 01:32:46
Перевод: Профессиональный (многоголосый закадровый) | TVShows
Субтитры: нет
Файл
Качество видео: WEB-DLRip
Формат видео: AVI
Видео: 720x304 (2.35:1), 23.976 fps, XviD build 73 ~1801 kbps avg, 0.343 bit/pixel
Аудио: 48 kHz, AC3 Dolby Digital, 3/2 (L, C, R, l, r) + LFE ch, ~448 kbps
Релиз от: vitolinform (aka Racketa)

MediaInfo

General
Complete name : D:SHafer.2023.WEB-DLRip.avi
Format : AVI
Format/Info : Audio Video Interleave
Format settings : BitmapInfoHeader / WaveFormatEx
File size : 1.46 GiB
Duration : 1 h 32 min
Overall bit rate : 2 258 kb/s
Frame rate : 23.976 FPS
Movie name : Шафер / The Best Man (2023) WEB-DLRip
Director : Шэйн Дэкс Тейлор / Shane Dax Taylor
Genre : боевик, триллер
Writing application : VirtualDubMod 1.5.10.2 (build 2542/release)
Original source form/Name : Художественный фильм
Copyright : США / Archstone Entertainment, Archstone Pictures, BondIt, Buffalo 8 Productions
Comment : Rip by vitolinform
Video
ID : 0
Format : MPEG-4 Visual
Format profile : Advanced Simple@L5
Format settings : BVOP1 / Custom Matrix
Format settings, BVOP : 1
Format settings, QPel : No
Format settings, GMC : No warppoints
Format settings, Matrix : Custom
Codec ID : XVID
Codec ID/Hint : XviD
Duration : 1 h 32 min
Bit rate : 1 801 kb/s
Width : 720 pixels
Height : 304 pixels
Display aspect ratio : 2.35:1
Frame rate : 23.976 (24000/1001) FPS
Original frame rate : 23.976 (23976/1000) FPS
Color space : YUV
Chroma subsampling : 4:2:0
Bit depth : 8 bits
Scan type : Progressive
Compression mode : Lossy
Bits/(Pixel*Frame) : 0.343
Stream size : 1.17 GiB (80%)
Writing library : XviD 73
Audio
ID : 1
Format : AC-3
Format/Info : Audio Coding 3
Commercial name : Dolby Digital
Codec ID : 2000
Duration : 1 h 32 min
Bit rate mode : Constant
Bit rate : 448 kb/s
Channel(s) : 6 channels
Channel layout : L R C LFE Ls Rs
Sampling rate : 48.0 kHz
Frame rate : 31.250 FPS (1536 SPF)
Compression mode : Lossy
Stream size : 297 MiB (20%)
Alignment : Split across interleaves
Interleave, duration : 42 ms (1.00 video frame)
Interleave, preload duration : 500 ms
Title : Russian (MVO, TVShows)
Service kind : Complete Main

Скриншоты

[Цитировать]



Показать сообщения:    

Текущее время: 13-Июн 09:00

Часовой пояс: UTC + 6


Вы не можете начинать темы
Вы не можете отвечать на сообщения
Вы не можете редактировать свои сообщения
Вы не можете удалять свои сообщения
Вы не можете голосовать в опросах
Вы не можете прикреплять файлы к сообщениям
Вы не можете скачивать файлы

!ВНИМАНИЕ!
Сайт не предоставляет электронные версии произведений, а занимается лишь коллекционированием и каталогизацией ссылок, присылаемых и публикуемых на форуме нашими читателями. Если вы являетесь правообладателем какого-либо представленного материала и не желаете, чтобы ссылка на него находилась в нашем каталоге, свяжитесь с нами, и мы незамедлительно удалим ее. Файлы для обмена на трекере предоставлены пользователями сайта, и администрация не несет ответственности за их содержание. Просьба не заливать файлы, защищенные авторскими правами, а также файлы нелегального содержания!