***Уважаемые пользователи и гости !!! Сайт переехал на новый домен Torrents-club.info. Просьба изменить ваши закладки! ***
 
[ Сегодня идет свободное скачивание без начисления Download ]


Статистика раздачи
Скачал: [ 1 ]
 
   
 
 
 
 
Авангард: Арктические волки / Ji xian feng / Vanguard
-Информация о фильме
Год выпуска: 2020
Страна: Китай
Студия: China Film (Shanghai) International Media Co., China Film Group Corporation (CFGC), Epitome Capital-Жанр: боевик, криминал
Перевод: Дублированный | iTunes
Продолжительность: 01:47:18
Субтитры: Русские | Forced-Режиссер: Стэнли Тун-В ролях: Джеки Чан, Ян Ян, Лунь Ай, Мия Муци, Чжу Чжэнтин, Ван Чжэньвэй, Саид Бадрия, Джексон Лоу, Эйад Хурани, Десмонд Элдридж-О фильме: Они берутся за задания, которые другим не под силу. Когда международный синдикат наемников похищает известного бизнесмена, единственным шансом на его спасение становится лихая команда «Авангард», не имеющая равных в мастерстве и дерзости.--Качество: BDRip-AVC
Формат: MKV
Видео: MPEG-4 AVC, 1024x424 (2.40:1), 24 fps, 2305 Kbit/s (0.221 bit/pixel)
Аудио: русский, AC3, 5.1, 48 kHz, 384 kbps | iTunes
Навигация по главам: есть--

ОтчетМедиаИнфо

General
Unique ID : 230243456972082189953057903743474573318 (0xAD3746DE361D9DD089E1CC83CE5BA006)
Complete name : G:GFVanguard.2020.BDRip.AVC.Rip.by.HardwareMining.R.G.Generalfilm.mkv
Format : Matroska
Format version : Version 4
File size : 2.02 GiB
Duration : 1 h 47 min
Overall bit rate : 2 692 kb/s
Frame rate : 24.000 FPS
Movie name : Vanguard.2020.BDRip.AVC.Rip.by.HardwareMining.R.G.Generalfilm
Encoded date : 2023-07-02 16:04:04 UTC
Writing application : mkvmerge v6.8.0 ('Theme for Great Cities') 64bit built on Mar 2 2014 21:34:26
Writing library : libebml v1.3.0 + libmatroska v1.4.1
Cover : Yes
Attachments : cover.png
Video
ID : 1
Format : AVC
Format/Info : Advanced Video Codec
Format profile : High@L4.1
Format settings : CABAC / 10 Ref Frames
Format settings, CABAC : Yes
Format settings, Reference frames : 10 frames
Codec ID : V_MPEG4/ISO/AVC
Duration : 1 h 47 min
Bit rate : 2 305 kb/s
Width : 1 024 pixels
Height : 424 pixels
Display aspect ratio : 2.40:1
Frame rate mode : Constant
Frame rate : 24.000 FPS
Color space : YUV
Chroma subsampling : 4:2:0
Bit depth : 8 bits
Scan type : Progressive
Bits/(Pixel*Frame) : 0.221
Stream size : 1.69 GiB (84%)
Writing library : x264 core 130 r2273 b3065e6
Encoding settings : cabac=1 / ref=10 / deblock=1:-2:-1 / analyse=0x3:0x133 / me=umh / subme=10 / psy=1 / psy_rd=1.00:0.08 / mixed_ref=1 / me_range=32 / chroma_me=1 / trellis=2 / 8x8dct=1 / cqm=0 / deadzone=21,11 / fast_pskip=0 / chroma_qp_offset=-3 / threads=6 / lookahead_threads=1 / sliced_threads=0 / nr=0 / decimate=1 / interlaced=0 / bluray_compat=0 / constrained_intra=0 / bframes=10 / b_pyramid=2 / b_adapt=2 / b_bias=0 / direct=3 / weightb=1 / open_gop=0 / weightp=2 / keyint=240 / keyint_min=23 / scenecut=40 / intra_refresh=0 / rc=2pass / mbtree=0 / bitrate=2305 / ratetol=1.0 / qcomp=0.60 / qpmin=0 / qpmax=69 / qpstep=4 / cplxblur=20.0 / qblur=0.5 / ip_ratio=1.40 / pb_ratio=1.30 / aq=2:1.00
Language : English
Default : Yes
Forced : No
Color range : Limited
Color primaries : BT.709
Transfer characteristics : BT.709
Matrix coefficients : BT.709
Audio
ID : 2
Format : AC-3
Format/Info : Audio Coding 3
Commercial name : Dolby Digital
Codec ID : A_AC3
Duration : 1 h 47 min
Bit rate mode : Constant
Bit rate : 384 kb/s
Channel(s) : 6 channels
Channel layout : L R C LFE Ls Rs
Sampling rate : 48.0 kHz
Frame rate : 31.250 FPS (1536 SPF)
Compression mode : Lossy
Stream size : 295 MiB (14%)
Title : Dub | iTunes
Language : Russian
Service kind : Complete Main
Default : Yes
Forced : No
Text
ID : 3
Format : UTF-8
Codec ID : S_TEXT/UTF8
Codec ID/Info : UTF-8 Plain Text
Title : forced
Language : Russian
Default : Yes
Forced : No
Menu
00:00:00.000 : zh:Глава 01
00:09:28.917 : zh:Глава 02
00:18:20.083 : zh:Глава 03
00:26:45.958 : zh:Глава 04
00:36:07.208 : zh:Глава 05
00:45:35.000 : zh:Глава 06
00:53:20.958 : zh:Глава 07
01:02:13.458 : zh:Глава 08
01:10:39.500 : zh:Глава 09
01:19:55.958 : zh:Глава 10
01:29:10.333 : zh:Глава 11
01:33:06.583 : zh:Глава 12

Скриншоты


[Цитировать]



Показать сообщения:    

Текущее время: 25-Май 11:08

Часовой пояс: UTC + 6


Вы не можете начинать темы
Вы не можете отвечать на сообщения
Вы не можете редактировать свои сообщения
Вы не можете удалять свои сообщения
Вы не можете голосовать в опросах
Вы не можете прикреплять файлы к сообщениям
Вы не можете скачивать файлы

!ВНИМАНИЕ!
Сайт не предоставляет электронные версии произведений, а занимается лишь коллекционированием и каталогизацией ссылок, присылаемых и публикуемых на форуме нашими читателями. Если вы являетесь правообладателем какого-либо представленного материала и не желаете, чтобы ссылка на него находилась в нашем каталоге, свяжитесь с нами, и мы незамедлительно удалим ее. Файлы для обмена на трекере предоставлены пользователями сайта, и администрация не несет ответственности за их содержание. Просьба не заливать файлы, защищенные авторскими правами, а также файлы нелегального содержания!